  0
SECTION
  2
HEADER
  9
$ACADVER
  1
AC1015
  9
$ACADMAINTVER
 70
    13
  9
$DWGCODEPAGE
  3
ANSI_1252
  9
$INSBASE
 10
0.0
 20
0.0
 30
0.0
  9
$EXTMIN
 10
5006.130695121506
 20
-77.13017295483492
 30
-0.000000000000001
  9
$EXTMAX
 10
5040.343951647409
 20
-51.12750404188449
 30
0.0000000000000142
  9
$LIMMIN
 10
0.0
 20
0.0
  9
$LIMMAX
 10
420.0
 20
297.0
  9
$ORTHOMODE
 70
     1
  9
$REGENMODE
 70
     1
  9
$FILLMODE
 70
     1
  9
$QTEXTMODE
 70
     0
  9
$MIRRTEXT
 70
     1
  9
$LTSCALE
 40
25.4
  9
$ATTMODE
 70
     1
  9
$TEXTSIZE
 40
2.5
  9
$TRACEWID
 40
1.0
  9
$TEXTSTYLE
  7
STANDARD
  9
$CLAYER
  8
0
  9
$CELTYPE
  6
ByLayer
  9
$CECOLOR
 62
   256
  9
$CELTSCALE
 40
1.0
  9
$DISPSILH
 70
     0
  9
$DIMSCALE
 40
8.0
  9
$DIMASZ
 40
2.5
  9
$DIMEXO
 40
0.625
  9
$DIMDLI
 40
3.75
  9
$DIMRND
 40
0.0
  9
$DIMDLE
 40
0.0
  9
$DIMEXE
 40
1.25
  9
$DIMTP
 40
0.0
  9
$DIMTM
 40
0.0
  9
$DIMTXT
 40
2.5
  9
$DIMCEN
 40
2.5
  9
$DIMTSZ
 40
0.0
  9
$DIMTOL
 70
     0
  9
$DIMLIM
 70
     0
  9
$DIMTIH
 70
     0
  9
$DIMTOH
 70
     0
  9
$DIMSE1
 70
     0
  9
$DIMSE2
 70
     0
  9
$DIMTAD
 70
     1
  9
$DIMZIN
 70
     8
  9
$DIMBLK
  1

  9
$DIMASO
 70
     1
  9
$DIMSHO
 70
     1
  9
$DIMPOST
  1

  9
$DIMAPOST
  1

  9
$DIMALT
 70
     0
  9
$DIMALTD
 70
     4
  9
$DIMALTF
 40
0.0394
  9
$DIMLFAC
 40
1.0
  9
$DIMTOFL
 70
     1
  9
$DIMTVP
 40
0.0
  9
$DIMTIX
 70
     0
  9
$DIMSOXD
 70
     0
  9
$DIMSAH
 70
     0
  9
$DIMBLK1
  1

  9
$DIMBLK2
  1

  9
$DIMSTYLE
  2
STANDARD
  9
$DIMCLRD
 70
     0
  9
$DIMCLRE
 70
     0
  9
$DIMCLRT
 70
     0
  9
$DIMTFAC
 40
1.0
  9
$DIMGAP
 40
0.625
  9
$DIMJUST
 70
     0
  9
$DIMSD1
 70
     0
  9
$DIMSD2
 70
     0
  9
$DIMTOLJ
 70
     1
  9
$DIMTZIN
 70
     0
  9
$DIMALTZ
 70
     0
  9
$DIMALTTZ
 70
     0
  9
$DIMUPT
 70
     0
  9
$DIMDEC
 70
     1
  9
$DIMTDEC
 70
     1
  9
$DIMALTU
 70
     8
  9
$DIMALTTD
 70
     4
  9
$DIMTXSTY
  7
STANDARD
  9
$DIMAUNIT
 70
     0
  9
$DIMADEC
 70
     0
  9
$DIMALTRND
 40
0.0
  9
$DIMAZIN
 70
     0
  9
$DIMDSEP
 70
    46
  9
$DIMATFIT
 70
     3
  9
$DIMFRAC
 70
     0
  9
$DIMLDRBLK
  1

  9
$DIMLUNIT
 70
     2
  9
$DIMLWD
 70
    -2
  9
$DIMLWE
 70
    -2
  9
$DIMTMOVE
 70
     0
  9
$LUNITS
 70
     2
  9
$LUPREC
 70
     4
  9
$SKETCHINC
 40
1.0
  9
$FILLETRAD
 40
80.0
  9
$AUNITS
 70
     0
  9
$AUPREC
 70
     0
  9
$MENU
  1
.
  9
$ELEVATION
 40
0.0
  9
$PELEVATION
 40
0.0
  9
$THICKNESS
 40
0.0
  9
$LIMCHECK
 70
     0
  9
$CHAMFERA
 40
10.0
  9
$CHAMFERB
 40
10.0
  9
$CHAMFERC
 40
20.0
  9
$CHAMFERD
 40
0.0
  9
$SKPOLY
 70
     0
  9
$TDCREATE
 40
2453155.332983553
  9
$TDUCREATE
 40
2453155.541316886
  9
$TDUPDATE
 40
2455069.843162905
  9
$TDUUPDATE
 40
2455070.051496238
  9
$TDINDWG
 40
0.7569465972
  9
$TDUSRTIMER
 40
0.7569346528
  9
$USRTIMER
 70
     1
  9
$ANGBASE
 50
0.0
  9
$ANGDIR
 70
     0
  9
$PDMODE
 70
     0
  9
$PDSIZE
 40
0.0
  9
$PLINEWID
 40
0.0
  9
$SPLFRAME
 70
     0
  9
$SPLINETYPE
 70
     6
  9
$SPLINESEGS
 70
     8
  9
$HANDSEED
  5
25BD
  9
$SURFTAB1
 70
     6
  9
$SURFTAB2
 70
     6
  9
$SURFTYPE
 70
     6
  9
$SURFU
 70
     6
  9
$SURFV
 70
     6
  9
$UCSBASE
  2

  9
$UCSNAME
  2

  9
$UCSORG
 10
0.0
 20
0.0
 30
0.0
  9
$UCSXDIR
 10
1.0
 20
0.0
 30
0.0
  9
$UCSYDIR
 10
0.0
 20
1.0
 30
0.0
  9
$UCSORTHOREF
  2

  9
$UCSORTHOVIEW
 70
     0
  9
$UCSORGTOP
 10
0.0
 20
0.0
 30
0.0
  9
$UCSORGBOTTOM
 10
0.0
 20
0.0
 30
0.0
  9
$UCSORGLEFT
 10
0.0
 20
0.0
 30
0.0
  9
$UCSORGRIGHT
 10
0.0
 20
0.0
 30
0.0
  9
$UCSORGFRONT
 10
0.0
 20
0.0
 30
0.0
  9
$UCSORGBACK
 10
0.0
 20
0.0
 30
0.0
  9
$PUCSBASE
  2

  9
$PUCSNAME
  2

  9
$PUCSORG
 10
0.0
 20
0.0
 30
0.0
  9
$PUCSXDIR
 10
1.0
 20
0.0
 30
0.0
  9
$PUCSYDIR
 10
0.0
 20
1.0
 30
0.0
  9
$PUCSORTHOREF
  2

  9
$PUCSORTHOVIEW
 70
     0
  9
$PUCSORGTOP
 10
0.0
 20
0.0
 30
0.0
  9
$PUCSORGBOTTOM
 10
0.0
 20
0.0
 30
0.0
  9
$PUCSORGLEFT
 10
0.0
 20
0.0
 30
0.0
  9
$PUCSORGRIGHT
 10
0.0
 20
0.0
 30
0.0
  9
$PUCSORGFRONT
 10
0.0
 20
0.0
 30
0.0
  9
$PUCSORGBACK
 10
0.0
 20
0.0
 30
0.0
  9
$USERI1
 70
     0
  9
$USERI2
 70
     0
  9
$USERI3
 70
     0
  9
$USERI4
 70
     0
  9
$USERI5
 70
     0
  9
$USERR1
 40
0.0
  9
$USERR2
 40
0.0
  9
$USERR3
 40
0.0
  9
$USERR4
 40
0.0
  9
$USERR5
 40
0.0
  9
$WORLDVIEW
 70
     1
  9
$SHADEDGE
 70
     3
  9
$SHADEDIF
 70
    70
  9
$TILEMODE
 70
     1
  9
$MAXACTVP
 70
    48
  9
$PINSBASE
 10
0.0
 20
0.0
 30
0.0
  9
$PLIMCHECK
 70
     0
  9
$PEXTMIN
 10
1.000000000000000E+20
 20
1.000000000000000E+20
 30
1.000000000000000E+20
  9
$PEXTMAX
 10
-1.000000000000000E+20
 20
-1.000000000000000E+20
 30
-1.000000000000000E+20
  9
$PLIMMIN
 10
0.0
 20
0.0
  9
$PLIMMAX
 10
420.0
 20
297.0
  9
$UNITMODE
 70
     0
  9
$VISRETAIN
 70
     1
  9
$PLINEGEN
 70
     0
  9
$PSLTSCALE
 70
     1
  9
$TREEDEPTH
 70
  3020
  9
$CMLSTYLE
  2
STANDARD
  9
$CMLJUST
 70
     0
  9
$CMLSCALE
 40
20.0
  9
$PROXYGRAPHICS
 70
     1
  9
$MEASUREMENT
 70
     1
  9
$CELWEIGHT
370
    -1
  9
$ENDCAPS
280
     0
  9
$JOINSTYLE
280
     0
  9
$LWDISPLAY
290
     0
  9
$INSUNITS
 70
     0
  9
$HYPERLINKBASE
  1

  9
$STYLESHEET
  1

  9
$XEDIT
290
     0
  9
$CEPSNTYPE
380
     0
  9
$PSTYLEMODE
290
     1
  9
$FINGERPRINTGUID
  2
{FBF78671-6757-4589-B207-3EA8ACDC7488}
  9
$VERSIONGUID
  2
{1EFCA626-EECE-452A-90AA-6C8C26350DF5}
  9
$EXTNAMES
290
     1
  9
$PSVPSCALE
 40
0.0
  9
$OLESTARTUP
290
     0
  0
ENDSEC
  0
SECTION
  2
CLASSES
  0
CLASS
  1
ACDBDICTIONARYWDFLT
  2
AcDbDictionaryWithDefault
  3
AutoCAD 2000
 90
        0
280
     0
281
     0
  0
CLASS
  1
DICTIONARYVAR
  2
AcDbDictionaryVar
  3
AutoCAD 2000
 90
        0
280
     0
281
     0
  0
CLASS
  1
ACDBPLACEHOLDER
  2
AcDbPlaceHolder
  3
AutoCAD 2000
 90
        0
280
     0
281
     0
  0
CLASS
  1
LAYOUT
  2
AcDbLayout
  3
AutoCAD 2000
 90
        0
280
     0
281
     0
  0
CLASS
  1
LWPOLYLINE
  2
AcDbPolyline
  3
AutoCAD 2000
 90
    32768
280
     0
281
     1
  0
CLASS
  1
IMAGE
  2
AcDbRasterImage
  3
ISM
 90
    32895
280
     0
281
     1
  0
CLASS
  1
OLE2FRAME
  2
AcDbOle2Frame
  3
AutoCAD 2000
 90
    32768
280
     0
281
     1
  0
CLASS
  1
HATCH
  2
AcDbHatch
  3
AutoCAD 2000
 90
    32768
280
     0
281
     1
  0
CLASS
  1
RASTERVARIABLES
  2
AcDbRasterVariables
  3
ISM
 90
    32768
280
     0
281
     0
  0
CLASS
  1
IMAGEDEF
  2
AcDbRasterImageDef
  3
ISM
 90
    32768
280
     0
281
     0
  0
CLASS
  1
IMAGEDEF_REACTOR
  2
AcDbRasterImageDefReactor
  3
ISM
 90
    32769
280
     0
281
     0
  0
CLASS
  1
IDBUFFER
  2
AcDbIdBuffer
  3
AutoCAD 2000
 90
    32768
280
     0
281
     0
  0
CLASS
  1
SPATIAL_FILTER
  2
AcDbSpatialFilter
  3
AutoCAD 2000
 90
    32768
280
     0
281
     0
  0
CLASS
  1
XRECORD
  2
AcDbXrecord
  3
AutoCAD 2000
 90
    32768
280
     0
281
     0
  0
CLASS
  1
SORTENTSTABLE
  2
AcDbSortentsTable
  3
AutoCAD 2000
 90
    32768
280
     0
281
     0
  0
CLASS
  1
LAYER_INDEX
  2
AcDbLayerIndex
  3
AutoCAD 2000
 90
    32768
280
     0
281
     0
  0
CLASS
  1
SPATIAL_INDEX
  2
AcDbSpatialIndex
  3
AutoCAD 2000
 90
    32768
280
     0
281
     0
  0
CLASS
  1
OBJECT_PTR
  2
CAseDLPNTableRecord
  3
ASE-LPNTableRecord
 90
    32769
280
     0
281
     0
  0
CLASS
  1
PLOTSETTINGS
  2
AcDbPlotSettings
  3
AutoCAD 2000
 90
    32768
280
     0
281
     0
  0
CLASS
  1
VBA_PROJECT
  2
AcDbVbaProject
  3
acadvba
 90
    32768
280
     0
281
     0
  0
CLASS
  1
WIPEOUT
  2
AcDbWipeout
  3
WipeOut|AutoCAD Express Tool|expresstools@autodesk.com
 90
    32895
280
     0
281
     1
  0
CLASS
  1
WIPEOUTVARIABLES
  2
AcDbWipeoutVariables
  3
WipeOut|AutoCAD Express Tool|expresstools@autodesk.com
 90
        0
280
     0
281
     0
  0
CLASS
  1
RTEXT
  2
RText
  3
RText|AutoCAD Express Tool|expresstools@autodesk.com
 90
    32768
280
     0
281
     1
  0
CLASS
  1
ARCALIGNEDTEXT
  2
AcDbArcAlignedText
  3
ATEXT|AutoCAD Express Tool|expresstools@autodesk.com
 90
    32768
280
     0
281
     1
  0
CLASS
  1
DIMASSOC
  2
AcDbDimAssoc
  3
"AcDbDimAssoc|Product Desc:     AcDim ARX App For Dimension|Company:          Autodesk, Inc.|WEB Address:      www.autodesk.com"
 90
    32768
280
     0
281
     0
  0
ENDSEC
  0
SECTION
  2
TABLES
  0
TABLE
  2
VPORT
  5
8
330
0
100
AcDbSymbolTable
 70
     3
  0
VPORT
  5
25BC
330
8
100
AcDbSymbolTableRecord
100
AcDbViewportTableRecord
  2
*Active
 70
     0
 10
0.0
 20
0.0
 11
1.0
 21
1.0
 12
5023.237323384458
 22
-64.12883849835971
 13
0.0
 23
0.0
 14
10.0
 24
10.0
 15
10.0
 25
10.0
 16
0.0
 26
0.0
 36
1.0
 17
0.0
 27
0.0
 37
0.0
 40
26.20397989808294
 41
2.056847545219638
 42
50.0
 43
0.0
 44
0.0
 50
0.0
 51
0.0
 71
     0
 72
   100
 73
     1
 74
     1
 75
     0
 76
     0
 77
     0
 78
     0
281
     0
 65
     0
110
0.0
120
0.0
130
0.0
111
1.0
121
0.0
131
0.0
112
0.0
122
1.0
132
0.0
 79
     0
146
0.0
  0
ENDTAB
  0
TABLE
  2
LTYPE
  5
5
330
0
100
AcDbSymbolTable
 70
     4
  0
LTYPE
  5
12
330
5
100
AcDbSymbolTableRecord
100
AcDbLinetypeTableRecord
  2
ByBlock
 70
     0
  3

 72
    65
 73
     0
 40
0.0
  0
LTYPE
  5
13
330
5
100
AcDbSymbolTableRecord
100
AcDbLinetypeTableRecord
  2
ByLayer
 70
     0
  3

 72
    65
 73
     0
 40
0.0
  0
LTYPE
  5
14
330
5
100
AcDbSymbolTableRecord
100
AcDbLinetypeTableRecord
  2
CONTINUOUS
 70
     0
  3
Solid line
 72
    65
 73
     0
 40
0.0
  0
LTYPE
  5
C2
330
5
100
AcDbSymbolTableRecord
100
AcDbLinetypeTableRecord
  2
CENTER2
 70
     0
  3
___ _ ___ _ ___ _ ___ _ ___ _ ___ _ ___ _ ___ _
 72
    65
 73
     4
 40
1.125
 49
0.75
 74
     0
 49
-0.125
 74
     0
 49
0.125
 74
     0
 49
-0.125
 74
     0
  0
LTYPE
  5
1239
330
5
100
AcDbSymbolTableRecord
100
AcDbLinetypeTableRecord
  2
solid
 70
     0
  3

 72
    65
 73
     0
 40
0.0
  0
LTYPE
  5
1DDA
330
5
100
AcDbSymbolTableRecord
100
AcDbLinetypeTableRecord
  2
DASHED2
 70
     0
  3
_ _ _ _ _ _ _ _ _ _ _ _ _ _ _ _ _ _ _ _ _ _ _ _
 72
    65
 73
     2
 40
0.375
 49
0.25
 74
     0
 49
-0.125
 74
     0
  0
ENDTAB
  0
TABLE
  2
LAYER
  5
2
330
0
100
AcDbSymbolTable
 70
     8
  0
LAYER
  5
E
330
2
100
AcDbSymbolTableRecord
100
AcDbLayerTableRecord
  2
0
 70
     0
 62
     7
  6
CONTINUOUS
370
    -3
390
EDE
  0
LAYER
  5
C3
330
2
100
AcDbSymbolTableRecord
100
AcDbLayerTableRecord
  2
CENTER
 70
     0
 62
     1
  6
CENTER2
370
    -3
390
EDE
  0
LAYER
  5
C4
330
2
100
AcDbSymbolTableRecord
100
AcDbLayerTableRecord
  2
DIM
 70
     0
 62
     1
  6
CONTINUOUS
370
    -3
390
EDE
  0
LAYER
  5
C5
330
2
100
AcDbSymbolTableRecord
100
AcDbLayerTableRecord
  2
DEFPOINTS
 70
     0
 62
     7
  6
CONTINUOUS
290
     0
370
    -3
390
EDE
  0
LAYER
  5
C6
330
2
100
AcDbSymbolTableRecord
100
AcDbLayerTableRecord
  2
DRAW
 70
     0
 62
     5
  6
CONTINUOUS
370
    -3
390
EDE
  0
LAYER
  5
123A
330
2
100
AcDbSymbolTableRecord
100
AcDbLayerTableRecord
  2
1
 70
     0
 62
     7
  6
solid
370
    -3
390
EDE
  0
LAYER
  5
129B
330
2
100
AcDbSymbolTableRecord
100
AcDbLayerTableRecord
  2
5
 70
     0
 62
     7
  6
solid
370
    -3
390
EDE
  0
LAYER
  5
1DDB
330
2
100
AcDbSymbolTableRecord
100
AcDbLayerTableRecord
  2
DESHED
 70
     0
 62
   190
  6
DASHED2
370
    -3
390
EDE
  0
ENDTAB
  0
TABLE
  2
STYLE
  5
3
330
0
100
AcDbSymbolTable
 70
     1
  0
STYLE
  5
F
330
3
100
AcDbSymbolTableRecord
100
AcDbTextStyleTableRecord
  2
STANDARD
 70
     0
 40
0.0
 41
1.0
 50
0.0
 71
     0
 42
2.5
  3
TXT
  4

  0
ENDTAB
  0
TABLE
  2
VIEW
  5
6
330
0
100
AcDbSymbolTable
 70
     0
  0
ENDTAB
  0
TABLE
  2
UCS
  5
7
330
0
100
AcDbSymbolTable
 70
     0
  0
ENDTAB
  0
TABLE
  2
APPID
  5
9
330
0
100
AcDbSymbolTable
 70
     2
  0
APPID
  5
10
330
9
100
AcDbSymbolTableRecord
100
AcDbRegAppTableRecord
  2
ACAD
 70
     0
  0
APPID
  5
1298
330
9
100
AcDbSymbolTableRecord
100
AcDbRegAppTableRecord
  2
DCO15
 70
     0
  0
ENDTAB
  0
TABLE
  2
DIMSTYLE
  5
A
330
0
100
AcDbSymbolTable
 70
     8
100
AcDbDimStyleTable
 71
     0
  0
DIMSTYLE
105
1D
102
{ACAD_REACTORS
330
33C
330
33E
330
346
330
348
330
349
330
34D
330
E00
330
E05
330
E0B
330
E0E
330
E10
330
E1D
102
}
330
A
100
AcDbSymbolTableRecord
100
AcDbDimStyleTableRecord
  2
STANDARD
 70
     0
340
F
  0
DIMSTYLE
105
C7
102
{ACAD_REACTORS
330
C9
330
E3
330
E5
330
E4
330
D0
330
DE
330
CF
330
E8
330
CA
330
EC
330
DA
330
D6
330
CD
330
CC
330
D5
330
CB
330
D4
330
2A7
330
2A8
330
2A9
330
2AB
330
2AE
330
2B1
330
2B3
330
2B9
330
2BC
330
330
330
333
330
336
330
338
330
342
330
3F7
330
3F8
330
3F9
330
3FA
330
3FB
330
3FC
330
401
330
402
330
403
330
406
330
40A
330
40D
330
40E
330
40F
330
412
330
413
330
416
330
964
330
965
330
968
330
96D
330
96E
330
970
330
A3F
330
A41
330
A4A
330
A98
330
A9B
330
AA0
330
AA1
330
AA3
102
}
330
A
100
AcDbSymbolTableRecord
100
AcDbDimStyleTableRecord
  2
B
 70
     0
 40
7.62
 41
1.5
 42
0.3125
 43
0.7
 44
1.0
 73
     0
 74
     0
 77
     1
140
1.5
141
0.045
147
0.3
271
     1
289
     2
340
F
  0
DIMSTYLE
105
FF0
330
A
100
AcDbSymbolTableRecord
100
AcDbDimStyleTableRecord
  2
ISO-25
 70
     0
 41
2.5
 42
0.625
 43
3.75
 44
1.25
 73
     0
 74
     0
 77
     1
 78
     8
140
2.5
141
2.5
143
0.03937007874016
147
0.625
171
     3
172
     1
271
     2
272
     2
274
     3
278
    44
283
     0
284
     8
340
F
  0
DIMSTYLE
105
108D
330
A
100
AcDbSymbolTableRecord
100
AcDbDimStyleTableRecord
  2
A
 70
     0
 40
7.62
 41
2.0
 42
0.6
 43
0.7
 44
1.5
 73
     0
 74
     0
 77
     1
140
1.899999999999999
141
0.1
147
0.6
271
     2
289
     2
340
F
  0
DIMSTYLE
105
13C5
330
A
100
AcDbSymbolTableRecord
100
AcDbDimStyleTableRecord
  2
C
 70
     0
  3
%%c<>
 40
7.62
 41
1.5
 42
0.3125
 43
0.7
 44
1.0
 73
     0
 74
     0
 77
     1
140
1.3
141
0.045
147
0.3
271
     1
289
     2
340
F
  0
DIMSTYLE
105
202A
330
A
100
AcDbSymbolTableRecord
100
AcDbDimStyleTableRecord
  2
b1
 70
     0
  3
"
  4
"
 40
10.0
 41
1.5
 42
0.3125
 43
0.7
 44
1.0
 47
1.0
 48
1.0
 77
     1
140
3.0
141
0.045
143
0.03937
144
0.03937
146
0.8
147
0.8
271
     3
272
     3
273
     5
277
     5
340
F
  0
DIMSTYLE
105
202B
330
A
100
AcDbSymbolTableRecord
100
AcDbDimStyleTableRecord
  2
B4
 70
     0
 40
7.62
 41
2.5
 42
0.3125
 43
0.7
 44
1.0
 77
     1
140
3.299999999999998
141
0.045
147
0.8
271
     1
272
     1
289
     2
340
F
  0
DIMSTYLE
105
202C
330
A
100
AcDbSymbolTableRecord
100
AcDbDimStyleTableRecord
  2
b44
 70
     0
  3
"
  4
"
 40
10.0
 41
2.1
 42
0.3125
 43
0.7
 44
1.0
 47
1.0
 48
1.0
 77
     1
140
3.0
141
0.045
143
0.03937
144
0.03937
146
0.8
147
0.8
271
     3
272
     3
273
     5
277
     5
340
F
  0
ENDTAB
  0
TABLE
  2
BLOCK_RECORD
  5
1
330
0
100
AcDbSymbolTable
 70
    88
  0
BLOCK_RECORD
  5
18
330
1
100
AcDbSymbolTableRecord
100
AcDbBlockTableRecord
  2
*MODEL_SPACE
340
EE3
  0
BLOCK_RECORD
  5
15
330
1
100
AcDbSymbolTableRecord
100
AcDbBlockTableRecord
  2
*PAPER_SPACE
340
EE4
  0
BLOCK_RECORD
  5
20
330
1
100
AcDbSymbolTableRecord
100
AcDbBlockTableRecord
  2
*D0
340
0
  0
BLOCK_RECORD
  5
28
330
1
100
AcDbSymbolTableRecord
100
AcDbBlockTableRecord
  2
*D1
340
0
  0
BLOCK_RECORD
  5
30
330
1
100
AcDbSymbolTableRecord
100
AcDbBlockTableRecord
  2
*D2
340
0
  0
BLOCK_RECORD
  5
38
330
1
100
AcDbSymbolTableRecord
100
AcDbBlockTableRecord
  2
*D3
340
0
  0
BLOCK_RECORD
  5
42
330
1
100
AcDbSymbolTableRecord
100
AcDbBlockTableRecord
  2
*D4
340
0
  0
BLOCK_RECORD
  5
4A
330
1
100
AcDbSymbolTableRecord
100
AcDbBlockTableRecord
  2
*D5
340
0
  0
BLOCK_RECORD
  5
52
330
1
100
AcDbSymbolTableRecord
100
AcDbBlockTableRecord
  2
*D6
340
0
  0
BLOCK_RECORD
  5
5A
330
1
100
AcDbSymbolTableRecord
100
AcDbBlockTableRecord
  2
*D7
340
0
  0
BLOCK_RECORD
  5
62
330
1
100
AcDbSymbolTableRecord
100
AcDbBlockTableRecord
  2
*D8
340
0
  0
BLOCK_RECORD
  5
6A
330
1
100
AcDbSymbolTableRecord
100
AcDbBlockTableRecord
  2
*D9
340
0
  0
BLOCK_RECORD
  5
72
330
1
100
AcDbSymbolTableRecord
100
AcDbBlockTableRecord
  2
*D10
340
0
  0
BLOCK_RECORD
  5
7E
330
1
100
AcDbSymbolTableRecord
100
AcDbBlockTableRecord
  2
*D11
340
0
  0
BLOCK_RECORD
  5
86
330
1
100
AcDbSymbolTableRecord
100
AcDbBlockTableRecord
  2
*D12
340
0
  0
BLOCK_RECORD
  5
92
330
1
100
AcDbSymbolTableRecord
100
AcDbBlockTableRecord
  2
*D13
340
0
  0
BLOCK_RECORD
  5
9E
330
1
100
AcDbSymbolTableRecord
100
AcDbBlockTableRecord
  2
*D14
340
0
  0
BLOCK_RECORD
  5
AA
330
1
100
AcDbSymbolTableRecord
100
AcDbBlockTableRecord
  2
*D15
340
0
  0
BLOCK_RECORD
  5
B6
330
1
100
AcDbSymbolTableRecord
100
AcDbBlockTableRecord
  2
*D16
340
0
  0
BLOCK_RECORD
  5
C8
330
1
100
AcDbSymbolTableRecord
100
AcDbBlockTableRecord
  2
A$C6BEF22AF
340
0
  0
BLOCK_RECORD
  5
24C
330
1
100
AcDbSymbolTableRecord
100
AcDbBlockTableRecord
  2
*D18
340
0
  0
BLOCK_RECORD
  5
258
330
1
100
AcDbSymbolTableRecord
100
AcDbBlockTableRecord
  2
*D19
340
0
  0
BLOCK_RECORD
  5
260
330
1
100
AcDbSymbolTableRecord
100
AcDbBlockTableRecord
  2
*D20
340
0
  0
BLOCK_RECORD
  5
26C
330
1
100
AcDbSymbolTableRecord
100
AcDbBlockTableRecord
  2
*D21
340
0
  0
BLOCK_RECORD
  5
276
330
1
100
AcDbSymbolTableRecord
100
AcDbBlockTableRecord
  2
*D22
340
0
  0
BLOCK_RECORD
  5
280
330
1
100
AcDbSymbolTableRecord
100
AcDbBlockTableRecord
  2
*D23
340
0
  0
BLOCK_RECORD
  5
288
330
1
100
AcDbSymbolTableRecord
100
AcDbBlockTableRecord
  2
*D24
340
0
  0
BLOCK_RECORD
  5
290
330
1
100
AcDbSymbolTableRecord
100
AcDbBlockTableRecord
  2
*D25
340
0
  0
BLOCK_RECORD
  5
29C
330
1
100
AcDbSymbolTableRecord
100
AcDbBlockTableRecord
  2
*D26
340
0
  0
BLOCK_RECORD
  5
2A4
330
1
100
AcDbSymbolTableRecord
100
AcDbBlockTableRecord
  2
A$C55375C64
340
0
  0
BLOCK_RECORD
  5
2C1
330
1
100
AcDbSymbolTableRecord
100
AcDbBlockTableRecord
  2
*D28
340
0
  0
BLOCK_RECORD
  5
2C9
330
1
100
AcDbSymbolTableRecord
100
AcDbBlockTableRecord
  2
*D29
340
0
  0
BLOCK_RECORD
  5
2D1
330
1
100
AcDbSymbolTableRecord
100
AcDbBlockTableRecord
  2
*D30
340
0
  0
BLOCK_RECORD
  5
2DA
330
1
100
AcDbSymbolTableRecord
100
AcDbBlockTableRecord
  2
*D31
340
0
  0
BLOCK_RECORD
  5
2E2
330
1
100
AcDbSymbolTableRecord
100
AcDbBlockTableRecord
  2
*D32
340
0
  0
BLOCK_RECORD
  5
2EE
330
1
100
AcDbSymbolTableRecord
100
AcDbBlockTableRecord
  2
*D33
340
0
  0
BLOCK_RECORD
  5
2FA
330
1
100
AcDbSymbolTableRecord
100
AcDbBlockTableRecord
  2
*D34
340
0
  0
BLOCK_RECORD
  5
306
330
1
100
AcDbSymbolTableRecord
100
AcDbBlockTableRecord
  2
*D35
340
0
  0
BLOCK_RECORD
  5
312
330
1
100
AcDbSymbolTableRecord
100
AcDbBlockTableRecord
  2
*D36
340
0
  0
BLOCK_RECORD
  5
31F
330
1
100
AcDbSymbolTableRecord
100
AcDbBlockTableRecord
  2
*D37
340
0
  0
BLOCK_RECORD
  5
327
330
1
100
AcDbSymbolTableRecord
100
AcDbBlockTableRecord
  2
*D38
340
0
  0
BLOCK_RECORD
  5
32F
330
1
100
AcDbSymbolTableRecord
100
AcDbBlockTableRecord
  2
A$C667F107E
340
0
  0
BLOCK_RECORD
  5
353
330
1
100
AcDbSymbolTableRecord
100
AcDbBlockTableRecord
  2
*D40
340
0
  0
BLOCK_RECORD
  5
35F
330
1
100
AcDbSymbolTableRecord
100
AcDbBlockTableRecord
  2
*D41
340
0
  0
BLOCK_RECORD
  5
36C
330
1
100
AcDbSymbolTableRecord
100
AcDbBlockTableRecord
  2
*D42
340
0
  0
BLOCK_RECORD
  5
378
330
1
100
AcDbSymbolTableRecord
100
AcDbBlockTableRecord
  2
*D43
340
0
  0
BLOCK_RECORD
  5
384
330
1
100
AcDbSymbolTableRecord
100
AcDbBlockTableRecord
  2
*D44
340
0
  0
BLOCK_RECORD
  5
390
330
1
100
AcDbSymbolTableRecord
100
AcDbBlockTableRecord
  2
*D45
340
0
  0
BLOCK_RECORD
  5
398
330
1
100
AcDbSymbolTableRecord
100
AcDbBlockTableRecord
  2
*D46
340
0
  0
BLOCK_RECORD
  5
3A0
330
1
100
AcDbSymbolTableRecord
100
AcDbBlockTableRecord
  2
*D47
340
0
  0
BLOCK_RECORD
  5
3A8
330
1
100
AcDbSymbolTableRecord
100
AcDbBlockTableRecord
  2
*D48
340
0
  0
BLOCK_RECORD
  5
3B0
330
1
100
AcDbSymbolTableRecord
100
AcDbBlockTableRecord
  2
*D49
340
0
  0
BLOCK_RECORD
  5
3BA
330
1
100
AcDbSymbolTableRecord
100
AcDbBlockTableRecord
  2
*D50
340
0
  0
BLOCK_RECORD
  5
3C2
330
1
100
AcDbSymbolTableRecord
100
AcDbBlockTableRecord
  2
*D51
340
0
  0
BLOCK_RECORD
  5
3CA
330
1
100
AcDbSymbolTableRecord
100
AcDbBlockTableRecord
  2
*D52
340
0
  0
BLOCK_RECORD
  5
3D2
330
1
100
AcDbSymbolTableRecord
100
AcDbBlockTableRecord
  2
*D53
340
0
  0
BLOCK_RECORD
  5
3DA
330
1
100
AcDbSymbolTableRecord
100
AcDbBlockTableRecord
  2
*D54
340
0
  0
BLOCK_RECORD
  5
3E2
330
1
100
AcDbSymbolTableRecord
100
AcDbBlockTableRecord
  2
*D55
340
0
  0
BLOCK_RECORD
  5
3EE
330
1
100
AcDbSymbolTableRecord
100
AcDbBlockTableRecord
  2
*D56
340
0
  0
BLOCK_RECORD
  5
3F6
330
1
100
AcDbSymbolTableRecord
100
AcDbBlockTableRecord
  2
A$C040035AA
340
0
  0
BLOCK_RECORD
  5
923
330
1
100
AcDbSymbolTableRecord
100
AcDbBlockTableRecord
  2
*D58
340
0
  0
BLOCK_RECORD
  5
92B
330
1
100
AcDbSymbolTableRecord
100
AcDbBlockTableRecord
  2
*D59
340
0
  0
BLOCK_RECORD
  5
933
330
1
100
AcDbSymbolTableRecord
100
AcDbBlockTableRecord
  2
*D60
340
0
  0
BLOCK_RECORD
  5
93F
330
1
100
AcDbSymbolTableRecord
100
AcDbBlockTableRecord
  2
*D61
340
0
  0
BLOCK_RECORD
  5
94B
330
1
100
AcDbSymbolTableRecord
100
AcDbBlockTableRecord
  2
*D62
340
0
  0
BLOCK_RECORD
  5
957
330
1
100
AcDbSymbolTableRecord
100
AcDbBlockTableRecord
  2
*D63
340
0
  0
BLOCK_RECORD
  5
963
330
1
100
AcDbSymbolTableRecord
100
AcDbBlockTableRecord
  2
A$C66E61FC0
340
0
  0
BLOCK_RECORD
  5
A13
330
1
100
AcDbSymbolTableRecord
100
AcDbBlockTableRecord
  2
A$C2EBD4E19
340
0
  0
BLOCK_RECORD
  5
A19
330
1
100
AcDbSymbolTableRecord
100
AcDbBlockTableRecord
  2
*D66
340
0
  0
BLOCK_RECORD
  5
A25
330
1
100
AcDbSymbolTableRecord
100
AcDbBlockTableRecord
  2
*D67
340
0
  0
BLOCK_RECORD
  5
A31
330
1
100
AcDbSymbolTableRecord
100
AcDbBlockTableRecord
  2
*D68
340
0
  0
BLOCK_RECORD
  5
A3D
330
1
100
AcDbSymbolTableRecord
100
AcDbBlockTableRecord
  2
A$C02E67ED2
340
0
  0
BLOCK_RECORD
  5
A5B
330
1
100
AcDbSymbolTableRecord
100
AcDbBlockTableRecord
  2
*D70
340
0
  0
BLOCK_RECORD
  5
A67
330
1
100
AcDbSymbolTableRecord
100
AcDbBlockTableRecord
  2
*D71
340
0
  0
BLOCK_RECORD
  5
A73
330
1
100
AcDbSymbolTableRecord
100
AcDbBlockTableRecord
  2
*D72
340
0
  0
BLOCK_RECORD
  5
A7F
330
1
100
AcDbSymbolTableRecord
100
AcDbBlockTableRecord
  2
*D73
340
0
  0
BLOCK_RECORD
  5
A8B
330
1
100
AcDbSymbolTableRecord
100
AcDbBlockTableRecord
  2
*D74
340
0
  0
BLOCK_RECORD
  5
A97
330
1
100
AcDbSymbolTableRecord
100
AcDbBlockTableRecord
  2
A$C607769D7
340
0
  0
BLOCK_RECORD
  5
DB7
330
1
100
AcDbSymbolTableRecord
100
AcDbBlockTableRecord
  2
*D76
340
0
  0
BLOCK_RECORD
  5
DC3
330
1
100
AcDbSymbolTableRecord
100
AcDbBlockTableRecord
  2
*D77
340
0
  0
BLOCK_RECORD
  5
DCF
330
1
100
AcDbSymbolTableRecord
100
AcDbBlockTableRecord
  2
*D78
340
0
  0
BLOCK_RECORD
  5
DDB
330
1
100
AcDbSymbolTableRecord
100
AcDbBlockTableRecord
  2
*D79
340
0
  0
BLOCK_RECORD
  5
DE7
330
1
100
AcDbSymbolTableRecord
100
AcDbBlockTableRecord
  2
*D80
340
0
  0
BLOCK_RECORD
  5
DF3
330
1
100
AcDbSymbolTableRecord
100
AcDbBlockTableRecord
  2
*D81
340
0
  0
BLOCK_RECORD
  5
DFF
330
1
100
AcDbSymbolTableRecord
100
AcDbBlockTableRecord
  2
A$C4A592B1E
340
0
  0
BLOCK_RECORD
  5
1F49
330
1
100
AcDbSymbolTableRecord
100
AcDbBlockTableRecord
  2
A$C22465CB6
340
0
  0
BLOCK_RECORD
  5
1FAC
330
1
100
AcDbSymbolTableRecord
100
AcDbBlockTableRecord
  2
A$C0CDF4DE3
340
0
  0
BLOCK_RECORD
  5
2420
330
1
100
AcDbSymbolTableRecord
100
AcDbBlockTableRecord
  2
*U85
340
0
102
{BLKREFS
331
242C
102
}
  0
BLOCK_RECORD
  5
243B
330
1
100
AcDbSymbolTableRecord
100
AcDbBlockTableRecord
  2
*U86
340
0
102
{BLKREFS
331
2443
331
2501
102
}
  0
ENDTAB
  0
ENDSEC
  0
SECTION
  2
BLOCKS
  0
BLOCK
  5
19
330
18
100
AcDbEntity
  8
0
100
AcDbBlockBegin
  2
*MODEL_SPACE
 70
     0
 10
0.0
 20
0.0
 30
0.0
  3
*MODEL_SPACE
  1

  0
ENDBLK
  5
1A
330
18
100
AcDbEntity
  8
0
100
AcDbBlockEnd
  0
BLOCK
  5
16
330
15
100
AcDbEntity
 67
     1
  8
0
100
AcDbBlockBegin
  2
*PAPER_SPACE
 70
     0
 10
0.0
 20
0.0
 30
0.0
  3
*PAPER_SPACE
  1

  0
ENDBLK
  5
17
330
15
100
AcDbEntity
 67
     1
  8
0
100
AcDbBlockEnd
  0
BLOCK
  5
26
330
20
100
AcDbEntity
  8
0
100
AcDbBlockBegin
  2
*D0
 70
     1
 10
0.0
 20
0.0
 30
0.0
  3
*D0
  1

  0
LINE
  5
21
330
20
100
AcDbEntity
  8
0
  6
ByBlock
 62
     0
100
AcDbLine
 10
13677.052022
 20
-8359.574506000001
 30
0.0
 11
13678.646219
 21
-8460.301734999999
 31
0.0
  0
MTEXT
  5
22
330
20
100
AcDbEntity
  8
0
  6
ByBlock
 62
     0
100
AcDbMText
 10
13685.585612
 20
-8393.162169
 30
0.0
 40
11.43
 41
0.0
 71
     5
 72
     1
  1
\A1;R1992.0
 11
0.0158249964690481
 21
-0.9998747769029654
 31
0.0
 73
     1
 44
1.0
  0
SOLID
  5
23
330
20
100
AcDbEntity
  8
0
  6
ByBlock
 62
     0
100
AcDbTrace
 10
13680.370102
 20
-8448.843020000005
 30
0.0
 11
13676.560579
 21
-8448.903312
 31
0.0
 12
13678.646219
 22
-8460.301734999999
 32
0.0
 13
13678.646219
 23
-8460.301734999999
 33
0.0
  0
POINT
  5
24
330
20
100
AcDbEntity
  8
DEFPOINTS
  6
ByBlock
 62
     0
100
AcDbPoint
 10
13678.646219
 20
-8460.301734999999
 30
-240.0
  0
POINT
  5
25
330
20
100
AcDbEntity
  8
DEFPOINTS
  6
ByBlock
 62
     0
100
AcDbPoint
 10
13647.123023
 20
-6468.551176
 30
-240.0
  0
ENDBLK
  5
27
330
20
100
AcDbEntity
  8
0
100
AcDbBlockEnd
  0
BLOCK
  5
2E
330
28
100
AcDbEntity
  8
0
100
AcDbBlockBegin
  2
*D1
 70
     1
 10
0.0
 20
0.0
 30
0.0
  3
*D1
  1

  0
LINE
  5
29
330
28
100
AcDbEntity
  8
0
  6
ByBlock
 62
     0
100
AcDbLine
 10
21430.636063
 20
-8349.725904000001
 30
0.0
 11
21373.361476
 21
-8298.318014000001
 31
0.0
  0
MTEXT
  5
2A
330
28
100
AcDbEntity
  8
0
  6
ByBlock
 62
     0
100
AcDbMText
 10
21415.84928099999
 20
-8325.702506
 30
0.0
 40
11.43
 41
0.0
 71
     5
 72
     1
  1
\A1;R140.0
 11
0.7441928279151031
 21
-0.6679648455418309
 31
0.0
 73
     1
 44
1.0
  0
SOLID
  5
2B
330
28
100
AcDbEntity
  8
0
  6
ByBlock
 62
     0
100
AcDbTrace
 10
21383.140075
 20
-8304.535161
 30
0.0
 11
21380.59513
 21
-8307.370537000002
 31
0.0
 12
21373.361476
 22
-8298.318014000001
 32
0.0
 13
21373.361476
 23
-8298.318014000001
 33
0.0
  0
POINT
  5
2C
330
28
100
AcDbEntity
  8
DEFPOINTS
  6
ByBlock
 62
     0
100
AcDbPoint
 10
21373.361476
 20
-8298.318014000001
 30
0.0
  0
POINT
  5
2D
330
28
100
AcDbEntity
  8
DEFPOINTS
  6
ByBlock
 62
     0
100
AcDbPoint
 10
21477.548505
 20
-8391.833054999999
 30
0.0
  0
ENDBLK
  5
2F
330
28
100
AcDbEntity
  8
0
100
AcDbBlockEnd
  0
BLOCK
  5
36
330
30
100
AcDbEntity
  8
0
100
AcDbBlockBegin
  2
*D2
 70
     1
 10
0.0
 20
0.0
 30
0.0
  3
*D2
  1

  0
LINE
  5
31
330
30
100
AcDbEntity
  8
0
  6
ByBlock
 62
     0
100
AcDbLine
 10
21692.765303
 20
-8296.802467
 30
0.0
 11
21706.197154
 21
-8260.557357000001
 31
0.0
  0
MTEXT
  5
32
330
30
100
AcDbEntity
  8
0
  6
ByBlock
 62
     0
100
AcDbMText
 10
21683.365342
 20
-8322.167744999999
 30
0.0
 40
11.43
 41
0.0
 71
     5
 72
     1
  1
\A1;R140.0
 11
0.3474898985406092
 21
0.9376837262170209
 31
0.0
 73
     1
 44
1.0
  0
SOLID
  5
33
330
30
100
AcDbEntity
  8
0
  6
ByBlock
 62
     0
100
AcDbTrace
 10
21700.439052
 20
-8270.613111000001
 30
0.0
 11
21704.011626
 21
-8271.937048999998
 31
0.0
 12
21706.197154
 22
-8260.557357000001
 32
0.0
 13
21706.197154
 23
-8260.557357000001
 33
0.0
  0
POINT
  5
34
330
30
100
AcDbEntity
  8
DEFPOINTS
  6
ByBlock
 62
     0
100
AcDbPoint
 10
21706.197154
 20
-8260.557357000001
 30
0.0
  0
POINT
  5
35
330
30
100
AcDbEntity
  8
DEFPOINTS
  6
ByBlock
 62
     0
100
AcDbPoint
 10
21657.54850499999
 20
-8391.833054999999
 30
0.0
  0
ENDBLK
  5
37
330
30
100
AcDbEntity
  8
0
100
AcDbBlockEnd
  0
BLOCK
  5
40
330
38
100
AcDbEntity
  8
0
100
AcDbBlockBegin
  2
*D3
 70
     1
 10
0.0
 20
0.0
 30
0.0
  3
*D3
  1

  0
LINE
  5
39
330
38
100
AcDbEntity
  8
0
  6
ByBlock
 62
     0
100
AcDbLine
 10
21766.80536100001
 20
-8377.37457
 30
0.0
 11
21776.061949
 21
-8303.460573999997
 31
0.0
  0
MTEXT
  5
3A
330
38
100
AcDbEntity
  8
0
  6
ByBlock
 62
     0
100
AcDbMText
 10
21761.754393
 20
-8353.319470999997
 30
0.0
 40
11.43
 41
0.0
 71
     5
 72
     1
  1
\A1;R30.0
 11
0.1242640236289927
 21
0.9922491886776896
 31
0.0
 73
     1
 44
1.0
  0
SOLID
  5
3B
330
38
100
AcDbEntity
  8
0
  6
ByBlock
 62
     0
100
AcDbTrace
 10
21772.751378
 20
-8314.565259000001
 30
0.0
 11
21776.531847
 21
-8315.038704999999
 31
0.0
 12
21776.061949
 22
-8303.460573999997
 32
0.0
 13
21776.061949
 23
-8303.460573999997
 33
0.0
  0
LINE
  5
3C
330
38
100
AcDbEntity
  8
0
  6
ByBlock
 62
     0
100
AcDbLine
 10
21779.446966
 20
-8273.693096999998
 30
0.0
 11
21780.13276599999
 21
-8273.693096999998
 31
0.0
  0
LINE
  5
3D
330
38
100
AcDbEntity
  8
0
  6
ByBlock
 62
     0
100
AcDbLine
 10
21779.78986599999
 20
-8274.035996999996
 30
0.0
 11
21779.78986599999
 21
-8273.350197
 31
0.0
  0
POINT
  5
3E
330
38
100
AcDbEntity
  8
DEFPOINTS
  6
ByBlock
 62
     0
100
AcDbPoint
 10
21776.061949
 20
-8303.460573999997
 30
0.0
  0
POINT
  5
3F
330
38
100
AcDbEntity
  8
DEFPOINTS
  6
ByBlock
 62
     0
100
AcDbPoint
 10
21779.78986599999
 20
-8273.693096999998
 30
0.0
  0
ENDBLK
  5
41
330
38
100
AcDbEntity
  8
0
100
AcDbBlockEnd
  0
BLOCK
  5
48
330
42
100
AcDbEntity
  8
0
100
AcDbBlockBegin
  2
*D4
 70
     1
 10
0.0
 20
0.0
 30
0.0
  3
*D4
  1

  0
LINE
  5
43
330
42
100
AcDbEntity
  8
0
  6
ByBlock
 62
     0
100
AcDbLine
 10
21413.438911
 20
-8558.781912
 30
0.0
 11
21366.077721
 21
-8609.430018000001
 31
0.0
  0
MTEXT
  5
44
330
42
100
AcDbEntity
  8
0
  6
ByBlock
 62
     0
100
AcDbMText
 10
21391.721093
 20
-8570.292623000003
 30
0.0
 40
11.43
 41
0.0
 71
     5
 72
     1
  1
\A1;R90.0
 11
0.6830089787649098
 21
0.730409977291189
 31
0.0
 73
     1
 44
1.0
  0
SOLID
  5
45
330
42
100
AcDbEntity
  8
0
  6
ByBlock
 62
     0
100
AcDbTrace
 10
21372.49307899999
 20
-8599.780297
 30
0.0
 11
21375.275942
 21
-8602.382561
 31
0.0
 12
21366.077721
 22
-8609.430018000001
 32
0.0
 13
21366.077721
 23
-8609.430018000001
 33
0.0
  0
POINT
  5
46
330
42
100
AcDbEntity
  8
DEFPOINTS
  6
ByBlock
 62
     0
100
AcDbPoint
 10
21366.077721
 20
-8609.430018000001
 30
0.0
  0
POINT
  5
47
330
42
100
AcDbEntity
  8
DEFPOINTS
  6
ByBlock
 62
     0
100
AcDbPoint
 10
21427.54850499999
 20
-8543.693097
 30
0.0
  0
ENDBLK
  5
49
330
42
100
AcDbEntity
  8
0
100
AcDbBlockEnd
  0
BLOCK
  5
50
330
4A
100
AcDbEntity
  8
0
100
AcDbBlockBegin
  2
*D5
 70
     1
 10
0.0
 20
0.0
 30
0.0
  3
*D5
  1

  0
LINE
  5
4B
330
4A
100
AcDbEntity
  8
0
  6
ByBlock
 62
     0
100
AcDbLine
 10
22021.33440699999
 20
-8554.810718
 30
0.0
 11
22075.84039
 21
-8599.274423000002
 31
0.0
  0
MTEXT
  5
4C
330
4A
100
AcDbEntity
  8
0
  6
ByBlock
 62
     0
100
AcDbMText
 10
22044.40085099999
 20
-8563.301848000001
 30
0.0
 40
11.43
 41
0.0
 71
     5
 72
     1
  1
\A1;R90.0
 11
0.7748770210483724
 21
-0.6321120171703751
 31
0.0
 73
     1
 44
1.0
  0
SOLID
  5
4D
330
4A
100
AcDbEntity
  8
0
  6
ByBlock
 62
     0
100
AcDbTrace
 10
22068.187721
 20
-8590.573240000002
 30
0.0
 11
22065.779373
 21
-8593.525521
 31
0.0
 12
22075.84039
 22
-8599.274423000002
 32
0.0
 13
22075.84039
 23
-8599.274423000002
 33
0.0
  0
POINT
  5
4E
330
4A
100
AcDbEntity
  8
DEFPOINTS
  6
ByBlock
 62
     0
100
AcDbPoint
 10
22075.84039
 20
-8599.274423000002
 30
0.0
  0
POINT
  5
4F
330
4A
100
AcDbEntity
  8
DEFPOINTS
  6
ByBlock
 62
     0
100
AcDbPoint
 10
22006.101471
 20
-8542.384325000002
 30
0.0
  0
ENDBLK
  5
51
330
4A
100
AcDbEntity
  8
0
100
AcDbBlockEnd
  0
BLOCK
  5
58
330
52
100
AcDbEntity
  8
0
100
AcDbBlockBegin
  2
*D6
 70
     1
 10
0.0
 20
0.0
 30
0.0
  3
*D6
  1

  0
LINE
  5
53
330
52
100
AcDbEntity
  8
0
  6
ByBlock
 62
     0
100
AcDbLine
 10
22013.84738
 20
-8452.412981
 30
0.0
 11
22098.42038699999
 21
-8451.179568000004
 31
0.0
  0
MTEXT
  5
54
330
52
100
AcDbEntity
  8
0
  6
ByBlock
 62
     0
100
AcDbMText
 10
22044.588424
 20
-8443.962803000001
 30
0.0
 40
11.43
 41
0.0
 71
     5
 72
     1
  1
\A1;R1201.0
 11
0.9998936770543924
 21
0.0145819952903079
 31
0.0
 73
     1
 44
1.0
  0
SOLID
  5
55
330
52
100
AcDbEntity
  8
0
  6
ByBlock
 62
     0
100
AcDbTrace
 10
22086.963822
 20
-8449.441447999999
 30
0.0
 11
22087.01938099999
 21
-8453.251042999999
 31
0.0
 12
22098.42038699999
 22
-8451.179568000004
 32
0.0
 13
22098.42038699999
 23
-8451.179568000004
 33
0.0
  0
POINT
  5
56
330
52
100
AcDbEntity
  8
DEFPOINTS
  6
ByBlock
 62
     0
100
AcDbPoint
 10
22098.42038699999
 20
-8451.179568000004
 30
0.0
  0
POINT
  5
57
330
52
100
AcDbEntity
  8
DEFPOINTS
  6
ByBlock
 62
     0
100
AcDbPoint
 10
20897.54808799999
 20
-8468.693096999999
 30
0.0
  0
ENDBLK
  5
59
330
52
100
AcDbEntity
  8
0
100
AcDbBlockEnd
  0
BLOCK
  5
60
330
5A
100
AcDbEntity
  8
0
100
AcDbBlockBegin
  2
*D7
 70
     1
 10
0.0
 20
0.0
 30
0.0
  3
*D7
  1

  0
LINE
  5
5B
330
5A
100
AcDbEntity
  8
0
  6
ByBlock
 62
     0
100
AcDbLine
 10
22013.496392
 20
-8381.817245
 30
0.0
 11
22050.12802599999
 21
-8316.505612000003
 31
0.0
  0
MTEXT
  5
5C
330
5A
100
AcDbEntity
  8
0
  6
ByBlock
 62
     0
100
AcDbMText
 10
22017.887199
 20
-8357.632934000001
 30
0.0
 40
11.43
 41
0.0
 71
     5
 72
     1
  1
\A1;R90.0
 11
0.4891838330374283
 21
0.8721807023173635
 31
0.0
 73
     1
 44
1.0
  0
SOLID
  5
5D
330
5A
100
AcDbEntity
  8
0
  6
ByBlock
 62
     0
100
AcDbTrace
 10
22042.87514899999
 20
-8325.542742000001
 30
0.0
 11
22046.198158
 21
-8327.406531999999
 31
0.0
 12
22050.12802599999
 22
-8316.505612000003
 32
0.0
 13
22050.12802599999
 23
-8316.505612000003
 33
0.0
  0
POINT
  5
5E
330
5A
100
AcDbEntity
  8
DEFPOINTS
  6
ByBlock
 62
     0
100
AcDbPoint
 10
22050.12802599999
 20
-8316.505612000003
 30
0.0
  0
POINT
  5
5F
330
5A
100
AcDbEntity
  8
DEFPOINTS
  6
ByBlock
 62
     0
100
AcDbPoint
 10
22006.101471
 20
-8395.001869999999
 30
0.0
  0
ENDBLK
  5
61
330
5A
100
AcDbEntity
  8
0
100
AcDbBlockEnd
  0
BLOCK
  5
68
330
62
100
AcDbEntity
  8
0
100
AcDbBlockBegin
  2
*D8
 70
     1
 10
0.0
 20
0.0
 30
0.0
  3
*D8
  1

  0
LINE
  5
63
330
62
100
AcDbEntity
  8
0
  6
ByBlock
 62
     0
100
AcDbLine
 10
21975.57489799999
 20
-8386.498481999998
 30
0.0
 11
21977.088222
 21
-8303.835333000002
 31
0.0
  0
MTEXT
  5
64
330
62
100
AcDbEntity
  8
0
  6
ByBlock
 62
     0
100
AcDbMText
 10
21968.12268499999
 20
-8356.448542
 30
0.0
 40
11.43
 41
0.0
 71
     5
 72
     1
  1
\A1;R849.0
 11
0.0183040085604207
 21
0.9998324676017578
 31
0.0
 73
     1
 44
1.0
  0
SOLID
  5
65
330
62
100
AcDbEntity
  8
0
  6
ByBlock
 62
     0
100
AcDbTrace
 10
21974.974326
 20
-8315.228549
 30
0.0
 11
21978.783687
 21
-8315.298287
 31
0.0
 12
21977.088222
 22
-8303.835333000002
 32
0.0
 13
21977.088222
 23
-8303.835333000002
 33
0.0
  0
POINT
  5
66
330
62
100
AcDbEntity
  8
DEFPOINTS
  6
ByBlock
 62
     0
100
AcDbPoint
 10
21977.088222
 20
-8303.835333000002
 30
0.0
  0
POINT
  5
67
330
62
100
AcDbEntity
  8
DEFPOINTS
  6
ByBlock
 62
     0
100
AcDbPoint
 10
21961.548088
 20
-9152.693097
 30
0.0
  0
ENDBLK
  5
69
330
62
100
AcDbEntity
  8
0
100
AcDbBlockEnd
  0
BLOCK
  5
70
330
6A
100
AcDbEntity
  8
0
100
AcDbBlockBegin
  2
*D9
 70
     1
 10
0.0
 20
0.0
 30
0.0
  3
*D9
  1

  0
LINE
  5
6B
330
6A
100
AcDbEntity
  8
0
  6
ByBlock
 62
     0
100
AcDbLine
 10
21968.162616
 20
-8550.98755
 30
0.0
 11
21968.87624299999
 21
-8633.661470000001
 31
0.0
  0
MTEXT
  5
6C
330
6A
100
AcDbEntity
  8
0
  6
ByBlock
 62
     0
100
AcDbMText
 10
21976.42147299999
 20
-8580.825875
 30
0.0
 40
11.43
 41
0.0
 71
     5
 72
     1
  1
\A1;R849.0
 11
0.0086319977867863
 21
-0.9999627436130854
 31
0.0
 73
     1
 44
1.0
  0
SOLID
  5
6D
330
6A
100
AcDbEntity
  8
0
  6
ByBlock
 62
     0
100
AcDbTrace
 10
21970.682514
 20
-8622.215453
 30
0.0
 11
21966.872656
 21
-8622.248339
 31
0.0
 12
21968.87624299999
 22
-8633.661470000001
 32
0.0
 13
21968.87624299999
 23
-8633.661470000001
 33
0.0
  0
POINT
  5
6E
330
6A
100
AcDbEntity
  8
DEFPOINTS
  6
ByBlock
 62
     0
100
AcDbPoint
 10
21968.87624299999
 20
-8633.661470000001
 30
0.0
  0
POINT
  5
6F
330
6A
100
AcDbEntity
  8
DEFPOINTS
  6
ByBlock
 62
     0
100
AcDbPoint
 10
21961.548088
 20
-7784.693097
 30
0.0
  0
ENDBLK
  5
71
330
6A
100
AcDbEntity
  8
0
100
AcDbBlockEnd
  0
BLOCK
  5
7C
330
72
100
AcDbEntity
  8
0
100
AcDbBlockBegin
  2
*D10
 70
     1
 10
0.0
 20
0.0
 30
0.0
  3
*D10
  1

  0
LINE
  5
73
330
72
100
AcDbEntity
  8
0
  6
ByBlock
 62
     0
100
AcDbLine
 10
21427.54850499999
 20
-8636.074347
 30
0.0
 11
21427.54850499999
 21
-8745.386534000001
 31
0.0
  0
LINE
  5
74
330
72
100
AcDbEntity
  8
0
  6
ByBlock
 62
     0
100
AcDbLine
 10
21960.91619699999
 20
-8682.571049999999
 30
0.0
 11
21960.91619699999
 21
-8745.386534000001
 31
0.0
  0
LINE
  5
75
330
72
100
AcDbEntity
  8
0
  6
ByBlock
 62
     0
100
AcDbLine
 10
21438.97850500001
 20
-8737.766534
 30
0.0
 11
21949.48619699999
 21
-8737.766534
 31
0.0
  0
SOLID
  5
76
330
72
100
AcDbEntity
  8
0
  6
ByBlock
 62
     0
100
AcDbTrace
 10
21438.97850500001
 20
-8735.861533999999
 30
0.0
 11
21438.97850500001
 21
-8739.671534000001
 31
0.0
 12
21427.54850499999
 22
-8737.766534
 32
0.0
 13
21427.54850499999
 23
-8737.766534
 33
0.0
  0
SOLID
  5
77
330
72
100
AcDbEntity
  8
0
  6
ByBlock
 62
     0
100
AcDbTrace
 10
21949.48619699999
 20
-8735.861533999999
 30
0.0
 11
21949.48619699999
 21
-8739.671534000001
 31
0.0
 12
21960.91619699999
 22
-8737.766534
 32
0.0
 13
21960.91619699999
 23
-8737.766534
 33
0.0
  0
MTEXT
  5
78
330
72
100
AcDbEntity
  8
0
  6
ByBlock
 62
     0
100
AcDbMText
 10
21694.232351
 20
-8729.765534
 30
0.0
 40
11.43
 41
0.0
 71
     5
 72
     1
  1
\A1;533.4
 73
     1
 44
1.0
  0
POINT
  5
79
330
72
100
AcDbEntity
  8
DEFPOINTS
  6
ByBlock
 62
     0
100
AcDbPoint
 10
21427.54850499999
 20
-8633.693097
 30
0.0
  0
POINT
  5
7A
330
72
100
AcDbEntity
  8
DEFPOINTS
  6
ByBlock
 62
     0
100
AcDbPoint
 10
21960.91619699999
 20
-8680.1898
 30
0.0
  0
POINT
  5
7B
330
72
100
AcDbEntity
  8
DEFPOINTS
  6
ByBlock
 62
     0
100
AcDbPoint
 10
21960.91619699999
 20
-8737.766534
 30
0.0
  0
ENDBLK
  5
7D
330
72
100
AcDbEntity
  8
0
100
AcDbBlockEnd
  0
BLOCK
  5
84
330
7E
100
AcDbEntity
  8
0
100
AcDbBlockBegin
  2
*D11
 70
     1
 10
0.0
 20
0.0
 30
0.0
  3
*D11
  1

  0
LINE
  5
7F
330
7E
100
AcDbEntity
  8
0
  6
ByBlock
 62
     0
100
AcDbLine
 10
21529.107391
 20
-8320.714561999999
 30
0.0
 11
21519.060078
 21
-8238.650331999998
 31
0.0
  0
MTEXT
  5
80
330
7E
100
AcDbEntity
  8
0
  6
ByBlock
 62
     0
100
AcDbMText
 10
21533.414463
 20
-8290.055411
 30
0.0
 40
11.43
 41
0.0
 71
     5
 72
     1
  1
\A1;R399.0
 11
0.121525044759566
 21
-0.9925883655857475
 31
0.0
 73
     1
 44
1.0
  0
SOLID
  5
81
330
7E
100
AcDbEntity
  8
0
  6
ByBlock
 62
     0
100
AcDbTrace
 10
21522.33998799999
 20
-8249.764112000001
 30
0.0
 11
21518.558227
 21
-8250.227122
 31
0.0
 12
21519.060078
 22
-8238.650331999998
 32
0.0
 13
21519.060078
 23
-8238.650331999998
 33
0.0
  0
POINT
  5
82
330
7E
100
AcDbEntity
  8
DEFPOINTS
  6
ByBlock
 62
     0
100
AcDbPoint
 10
21519.060078
 20
-8238.650331999998
 30
0.0
  0
POINT
  5
83
330
7E
100
AcDbEntity
  8
DEFPOINTS
  6
ByBlock
 62
     0
100
AcDbPoint
 10
21567.548505
 20
-8634.693097000001
 30
0.0
  0
ENDBLK
  5
85
330
7E
100
AcDbEntity
  8
0
100
AcDbBlockEnd
  0
BLOCK
  5
90
330
86
100
AcDbEntity
  8
0
100
AcDbBlockBegin
  2
*D12
 70
     1
 10
0.0
 20
0.0
 30
0.0
  3
*D12
  1

  0
LINE
  5
87
330
86
100
AcDbEntity
  8
0
  6
ByBlock
 62
     0
100
AcDbLine
 10
21565.16725499999
 20
-8235.693097
 30
0.0
 11
21228.70715099999
 21
-8235.693097
 31
0.0
  0
LINE
  5
88
330
86
100
AcDbEntity
  8
0
  6
ByBlock
 62
     0
100
AcDbLine
 10
21565.16725499999
 20
-8633.693097
 30
0.0
 11
21228.70715099999
 21
-8633.693097
 31
0.0
  0
LINE
  5
89
330
86
100
AcDbEntity
  8
0
  6
ByBlock
 62
     0
100
AcDbLine
 10
21236.327151
 20
-8247.123097000001
 30
0.0
 11
21236.327151
 21
-8622.263096999999
 31
0.0
  0
SOLID
  5
8A
330
86
100
AcDbEntity
  8
0
  6
ByBlock
 62
     0
100
AcDbTrace
 10
21234.42215099999
 20
-8247.123097000001
 30
0.0
 11
21238.232151
 21
-8247.123097000001
 31
0.0
 12
21236.327151
 22
-8235.693097
 32
0.0
 13
21236.327151
 23
-8235.693097
 33
0.0
  0
SOLID
  5
8B
330
86
100
AcDbEntity
  8
0
  6
ByBlock
 62
     0
100
AcDbTrace
 10
21234.42215099999
 20
-8622.263096999999
 30
0.0
 11
21238.232151
 21
-8622.263096999999
 31
0.0
 12
21236.327151
 22
-8633.693097
 32
0.0
 13
21236.327151
 23
-8633.693097
 33
0.0
  0
MTEXT
  5
8C
330
86
100
AcDbEntity
  8
0
  6
ByBlock
 62
     0
100
AcDbMText
 10
21228.326151
 20
-8434.693097
 30
0.0
 40
11.43
 41
0.0
 71
     5
 72
     1
  1
\A1;398.0
 11
0.0
 21
1.0
 31
0.0
 73
     1
 44
1.0
  0
POINT
  5
8D
330
86
100
AcDbEntity
  8
DEFPOINTS
  6
ByBlock
 62
     0
100
AcDbPoint
 10
21567.548505
 20
-8235.693097
 30
0.0
  0
POINT
  5
8E
330
86
100
AcDbEntity
  8
DEFPOINTS
  6
ByBlock
 62
     0
100
AcDbPoint
 10
21567.548505
 20
-8633.693097
 30
0.0
  0
POINT
  5
8F
330
86
100
AcDbEntity
  8
DEFPOINTS
  6
ByBlock
 62
     0
100
AcDbPoint
 10
21236.327151
 20
-8633.693097
 30
0.0
  0
ENDBLK
  5
91
330
86
100
AcDbEntity
  8
0
100
AcDbBlockEnd
  0
BLOCK
  5
9C
330
92
100
AcDbEntity
  8
0
100
AcDbBlockBegin
  2
*D13
 70
     1
 10
0.0
 20
0.0
 30
0.0
  3
*D13
  1

  0
LINE
  5
93
330
92
100
AcDbEntity
  8
0
  6
ByBlock
 62
     0
100
AcDbLine
 10
21337.54850499999
 20
-8471.456543
 30
0.0
 11
21337.54850499999
 21
-8781.371945000001
 31
0.0
  0
LINE
  5
94
330
92
100
AcDbEntity
  8
0
  6
ByBlock
 62
     0
100
AcDbLine
 10
22098.547635
 20
-8472.117565999999
 30
0.0
 11
22098.547635
 21
-8781.371945000001
 31
0.0
  0
LINE
  5
95
330
92
100
AcDbEntity
  8
0
  6
ByBlock
 62
     0
100
AcDbLine
 10
21348.97850499999
 20
-8773.751945
 30
0.0
 11
22087.11763499999
 21
-8773.751945
 31
0.0
  0
SOLID
  5
96
330
92
100
AcDbEntity
  8
0
  6
ByBlock
 62
     0
100
AcDbTrace
 10
21348.97850499999
 20
-8771.846945000001
 30
0.0
 11
21348.97850499999
 21
-8775.656945000001
 31
0.0
 12
21337.54850499999
 22
-8773.751945
 32
0.0
 13
21337.54850499999
 23
-8773.751945
 33
0.0
  0
SOLID
  5
97
330
92
100
AcDbEntity
  8
0
  6
ByBlock
 62
     0
100
AcDbTrace
 10
22087.11763499999
 20
-8771.846945000001
 30
0.0
 11
22087.11763499999
 21
-8775.656945000001
 31
0.0
 12
22098.547635
 22
-8773.751945
 32
0.0
 13
22098.547635
 23
-8773.751945
 33
0.0
  0
MTEXT
  5
98
330
92
100
AcDbEntity
  8
0
  6
ByBlock
 62
     0
100
AcDbMText
 10
21718.04807
 20
-8765.750945
 30
0.0
 40
11.43
 41
0.0
 71
     5
 72
     1
  1
\A1;761.0
 73
     1
 44
1.0
  0
POINT
  5
99
330
92
100
AcDbEntity
  8
DEFPOINTS
  6
ByBlock
 62
     0
100
AcDbPoint
 10
21337.54850499999
 20
-8469.075293000003
 30
0.0
  0
POINT
  5
9A
330
92
100
AcDbEntity
  8
DEFPOINTS
  6
ByBlock
 62
     0
100
AcDbPoint
 10
22098.547635
 20
-8469.736316
 30
0.0
  0
POINT
  5
9B
330
92
100
AcDbEntity
  8
DEFPOINTS
  6
ByBlock
 62
     0
100
AcDbPoint
 10
22098.547635
 20
-8773.751945
 30
0.0
  0
ENDBLK
  5
9D
330
92
100
AcDbEntity
  8
0
100
AcDbBlockEnd
  0
BLOCK
  5
A8
330
9E
100
AcDbEntity
  8
0
100
AcDbBlockBegin
  2
*D14
 70
     1
 10
0.0
 20
0.0
 30
0.0
  3
*D14
  1

  0
LINE
  5
9F
330
9E
100
AcDbEntity
  8
0
  6
ByBlock
 62
     0
100
AcDbLine
 10
21963.297447
 20
-8303.693097
 30
0.0
 11
22224.725251
 21
-8303.693097
 31
0.0
  0
LINE
  5
A0
330
9E
100
AcDbEntity
  8
0
  6
ByBlock
 62
     0
100
AcDbLine
 10
21963.297447
 20
-8633.692862
 30
0.0
 11
22224.725251
 21
-8633.692862
 31
0.0
  0
LINE
  5
A1
330
9E
100
AcDbEntity
  8
0
  6
ByBlock
 62
     0
100
AcDbLine
 10
22217.105251
 20
-8315.123097
 30
0.0
 11
22217.105251
 21
-8622.262861999999
 31
0.0
  0
SOLID
  5
A2
330
9E
100
AcDbEntity
  8
0
  6
ByBlock
 62
     0
100
AcDbTrace
 10
22215.20025099999
 20
-8315.123097
 30
0.0
 11
22219.010251
 21
-8315.123097
 31
0.0
 12
22217.105251
 22
-8303.693097
 32
0.0
 13
22217.105251
 23
-8303.693097
 33
0.0
  0
SOLID
  5
A3
330
9E
100
AcDbEntity
  8
0
  6
ByBlock
 62
     0
100
AcDbTrace
 10
22215.20025099999
 20
-8622.262861999999
 30
0.0
 11
22219.010251
 21
-8622.262861999999
 31
0.0
 12
22217.105251
 22
-8633.692862
 32
0.0
 13
22217.105251
 23
-8633.692862
 33
0.0
  0
MTEXT
  5
A4
330
9E
100
AcDbEntity
  8
0
  6
ByBlock
 62
     0
100
AcDbMText
 10
22209.104251
 20
-8468.69298
 30
0.0
 40
11.43
 41
0.0
 71
     5
 72
     1
  1
\A1;330.0
 11
0.0
 21
1.0
 31
0.0
 73
     1
 44
1.0
  0
POINT
  5
A5
330
9E
100
AcDbEntity
  8
DEFPOINTS
  6
ByBlock
 62
     0
100
AcDbPoint
 10
21960.91619699999
 20
-8303.693097
 30
0.0
  0
POINT
  5
A6
330
9E
100
AcDbEntity
  8
DEFPOINTS
  6
ByBlock
 62
     0
100
AcDbPoint
 10
21960.91619699999
 20
-8633.692862
 30
0.0
  0
POINT
  5
A7
330
9E
100
AcDbEntity
  8
DEFPOINTS
  6
ByBlock
 62
     0
100
AcDbPoint
 10
22217.105251
 20
-8633.692862
 30
0.0
  0
ENDBLK
  5
A9
330
9E
100
AcDbEntity
  8
0
100
AcDbBlockEnd
  0
BLOCK
  5
B4
330
AA
100
AcDbEntity
  8
0
100
AcDbBlockBegin
  2
*D15
 70
     1
 10
0.0
 20
0.0
 30
0.0
  3
*D15
  1

  0
LINE
  5
AB
330
AA
100
AcDbEntity
  8
0
  6
ByBlock
 62
     0
100
AcDbLine
 10
21337.54850499999
 20
-8435.811997000001
 30
0.0
 11
21337.54850499999
 21
-8420.563345000001
 31
0.0
  0
LINE
  5
AC
330
AA
100
AcDbEntity
  8
0
  6
ByBlock
 62
     0
100
AcDbLine
 10
21567.548505
 20
-8450.500590000002
 30
0.0
 11
21567.548505
 21
-8420.563345000001
 31
0.0
  0
LINE
  5
AD
330
AA
100
AcDbEntity
  8
0
  6
ByBlock
 62
     0
100
AcDbLine
 10
21348.97850499999
 20
-8428.183344999998
 30
0.0
 11
21556.118505
 21
-8428.183344999998
 31
0.0
  0
SOLID
  5
AE
330
AA
100
AcDbEntity
  8
0
  6
ByBlock
 62
     0
100
AcDbTrace
 10
21348.97850499999
 20
-8426.278345000001
 30
0.0
 11
21348.97850499999
 21
-8430.088344999999
 31
0.0
 12
21337.54850499999
 22
-8428.183344999998
 32
0.0
 13
21337.54850499999
 23
-8428.183344999998
 33
0.0
  0
SOLID
  5
AF
330
AA
100
AcDbEntity
  8
0
  6
ByBlock
 62
     0
100
AcDbTrace
 10
21556.118505
 20
-8426.278345000001
 30
0.0
 11
21556.118505
 21
-8430.088344999999
 31
0.0
 12
21567.548505
 22
-8428.183344999998
 32
0.0
 13
21567.548505
 23
-8428.183344999998
 33
0.0
  0
MTEXT
  5
B0
330
AA
100
AcDbEntity
  8
0
  6
ByBlock
 62
     0
100
AcDbMText
 10
21452.548505
 20
-8420.182345
 30
0.0
 40
11.43
 41
0.0
 71
     5
 72
     1
  1
\A1;230.0
 73
     1
 44
1.0
  0
POINT
  5
B1
330
AA
100
AcDbEntity
  8
DEFPOINTS
  6
ByBlock
 62
     0
100
AcDbPoint
 10
21337.54850499999
 20
-8438.193246999999
 30
0.0
  0
POINT
  5
B2
330
AA
100
AcDbEntity
  8
DEFPOINTS
  6
ByBlock
 62
     0
100
AcDbPoint
 10
21567.548505
 20
-8452.881840000001
 30
0.0
  0
POINT
  5
B3
330
AA
100
AcDbEntity
  8
DEFPOINTS
  6
ByBlock
 62
     0
100
AcDbPoint
 10
21567.548505
 20
-8428.183344999998
 30
0.0
  0
ENDBLK
  5
B5
330
AA
100
AcDbEntity
  8
0
100
AcDbBlockEnd
  0
BLOCK
  5
C0
330
B6
100
AcDbEntity
  8
0
100
AcDbBlockBegin
  2
*D16
 70
     1
 10
0.0
 20
0.0
 30
0.0
  3
*D16
  1

  0
LINE
  5
B7
330
B6
100
AcDbEntity
  8
0
  6
ByBlock
 62
     0
100
AcDbLine
 10
21960.91619699999
 20
-8479.253359999999
 30
0.0
 11
21960.91619699999
 21
-8515.882417000002
 31
0.0
  0
LINE
  5
B8
330
B6
100
AcDbEntity
  8
0
  6
ByBlock
 62
     0
100
AcDbLine
 10
22098.512564
 20
-8480.311697999999
 30
0.0
 11
22098.512564
 21
-8515.882417000002
 31
0.0
  0
LINE
  5
B9
330
B6
100
AcDbEntity
  8
0
  6
ByBlock
 62
     0
100
AcDbLine
 10
21972.346197
 20
-8508.262417
 30
0.0
 11
22087.082564
 21
-8508.262417
 31
0.0
  0
SOLID
  5
BA
330
B6
100
AcDbEntity
  8
0
  6
ByBlock
 62
     0
100
AcDbTrace
 10
21972.346197
 20
-8506.357417000003
 30
0.0
 11
21972.346197
 21
-8510.167417000001
 31
0.0
 12
21960.91619699999
 22
-8508.262417
 32
0.0
 13
21960.91619699999
 23
-8508.262417
 33
0.0
  0
SOLID
  5
BB
330
B6
100
AcDbEntity
  8
0
  6
ByBlock
 62
     0
100
AcDbTrace
 10
22087.082564
 20
-8506.357417000003
 30
0.0
 11
22087.082564
 21
-8510.167417000001
 31
0.0
 12
22098.512564
 22
-8508.262417
 32
0.0
 13
22098.512564
 23
-8508.262417
 33
0.0
  0
MTEXT
  5
BC
330
B6
100
AcDbEntity
  8
0
  6
ByBlock
 62
     0
100
AcDbMText
 10
22029.714381
 20
-8500.261417
 30
0.0
 40
11.43
 41
0.0
 71
     5
 72
     1
  1
\A1;137.6
 73
     1
 44
1.0
  0
POINT
  5
BD
330
B6
100
AcDbEntity
  8
DEFPOINTS
  6
ByBlock
 62
     0
100
AcDbPoint
 10
21960.91619699999
 20
-8476.87211
 30
0.0
  0
POINT
  5
BE
330
B6
100
AcDbEntity
  8
DEFPOINTS
  6
ByBlock
 62
     0
100
AcDbPoint
 10
22098.512564
 20
-8477.930448
 30
0.0
  0
POINT
  5
BF
330
B6
100
AcDbEntity
  8
DEFPOINTS
  6
ByBlock
 62
     0
100
AcDbPoint
 10
22098.512564
 20
-8508.262417
 30
0.0
  0
ENDBLK
  5
C1
330
B6
100
AcDbEntity
  8
0
100
AcDbBlockEnd
  0
BLOCK
  5
ED
330
C8
100
AcDbEntity
  8
0
100
AcDbBlockBegin
  2
A$C6BEF22AF
 70
     0
 10
0.0
 20
0.0
 30
0.0
  3
A$C6BEF22AF
  1

  0
DIMENSION
  5
C9
330
C8
100
AcDbEntity
  8
DIM
100
AcDbDimension
  2
*D0
 10
784.0294209999998
 20
427.9927419999999
 30
-240.0
 11
814.492012
 21
-1496.744864999999
 31
0.0
 12
-12863.093602
 22
6896.543918
 32
0.0
 70
   164
 71
     5
 42
-1.0
  3
B
100
AcDbRadialDimension
 15
815.5526179999997
 25
-1563.757817
 35
-240.0
 40
0.0
1001
ACAD
1000
DSTYLE
1002
{
1070
   288
1070
     1
1070
   289
1070
     3
1002
}
  0
DIMENSION
  5
CA
330
C8
100
AcDbEntity
  8
DIM
 62
     1
100
AcDbDimension
  2
*D8
 10
1520.488599
 20
-73.23645
 30
0.0
 11
1535.062855
 21
722.8616549999998
 31
0.0
 12
-20441.05948999999
 22
9079.456648000002
 32
0.0
 70
   164
 71
     5
 42
-1.0
  3
B
100
AcDbRadialDimension
 15
1536.028732
 25
775.6213149999998
 35
0.0
 40
0.0
1001
ACAD
1000
DSTYLE
1002
{
1070
   288
1070
     1
1070
   289
1070
     3
1002
}
  0
DIMENSION
  5
CB
330
C8
100
AcDbEntity
  8
DIM
 62
     1
100
AcDbDimension
  2
*D15
 10
1126.489015
 20
651.273303
 30
0.0
 11
1011.489014999999
 21
659.274303
 31
0.0
 12
-20441.05948999999
 22
9079.456648000002
 32
0.0
 70
    32
 71
     5
 42
-1.0
  3
B
100
AcDbAlignedDimension
 13
896.489015
 23
641.2634009999996
 33
0.0
 14
1126.489015
 24
626.5748069999999
 34
0.0
100
AcDbRotatedDimension
1001
ACAD
1000
DSTYLE
1002
{
1070
   289
1070
     3
1002
}
  0
DIMENSION
  5
CC
330
C8
100
AcDbEntity
  8
DIM
 62
     1
100
AcDbDimension
  2
*D13
 10
1657.488145999999
 20
305.704703
 30
0.0
 11
1276.988581
 21
313.705703
 31
0.0
 12
-20441.05948999999
 22
9079.456648000002
 32
0.0
 70
    32
 71
     5
 42
-1.0
  3
B
100
AcDbAlignedDimension
 13
896.489015
 23
610.3813549999999
 33
0.0
 14
1657.488145999999
 24
609.720331
 34
0.0
100
AcDbRotatedDimension
1001
ACAD
1000
DSTYLE
1002
{
1070
   289
1070
     3
1002
}
  0
DIMENSION
  5
CD
330
C8
100
AcDbEntity
  8
DIM
 62
     1
100
AcDbDimension
  2
*D12
 10
795.2676610000001
 20
445.76355
 30
0.0
 11
787.266661
 21
644.76355
 31
0.0
 12
-20441.05948999999
 22
9079.456648000002
 32
0.0
 70
    32
 71
     5
 42
-1.0
  3
B
100
AcDbAlignedDimension
 13
1126.489015
 23
843.76355
 33
0.0
 14
1126.489015
 24
445.76355
 34
0.0
 50
90.0
100
AcDbRotatedDimension
1001
ACAD
1000
DSTYLE
1002
{
1070
   289
1070
     3
1002
}
  0
LINE
  5
CE
330
C8
100
AcDbEntity
  8
CENTER
 62
     1
100
AcDbLine
 10
838.484401
 20
611.6935709999998
 30
0.0
 11
1744.833856
 21
611.6935709999998
 31
0.0
  0
DIMENSION
  5
CF
330
C8
100
AcDbEntity
  8
DIM
 62
     1
100
AcDbDimension
  2
*D6
 10
456.488599
 20
610.76355
 30
0.0
 11
1603.645608999999
 21
627.4936959999998
 31
0.0
 12
-20441.05948999999
 22
9079.456648000002
 32
0.0
 70
   164
 71
     5
 42
-1.0
  3
B
100
AcDbRadialDimension
 15
1657.360897
 25
628.2770799999998
 35
0.0
 40
0.0
1001
ACAD
1000
DSTYLE
1002
{
1070
   288
1070
     1
1070
   289
1070
     3
1002
}
  0
DIMENSION
  5
D0
330
C8
100
AcDbEntity
  8
DIM
 62
     1
100
AcDbDimension
  2
*D4
 10
986.489015
 20
535.7635499999997
 30
0.0
 11
956.5056160000001
 21
503.6992719999997
 31
0.0
 12
-20441.05948999999
 22
9079.456648000002
 32
0.0
 70
   164
 71
     5
 42
-1.0
  3
B
100
AcDbRadialDimension
 15
925.0182309999999
 25
470.02663
 35
0.0
 40
0.0
1001
ACAD
1000
DSTYLE
1002
{
1070
   288
1070
     1
1070
   289
1070
     3
1002
}
  0
ARC
  5
D1
330
C8
100
AcDbEntity
  8
DRAW
100
AcDbCircle
 10
1036.489015
 20
687.623592
 30
0.0
 40
140.0
100
AcDbArc
 50
110.33389
 51
180.0
  0
ARC
  5
D2
330
C8
100
AcDbEntity
  8
DRAW
100
AcDbCircle
 10
986.489015
 20
535.7635499999997
 30
0.0
 40
90.0
100
AcDbArc
 50
180.0
 51
270.0
  0
LINE
  5
D3
330
C8
100
AcDbEntity
  8
DRAW
100
AcDbLine
 10
896.489015
 20
535.7635499999997
 30
0.0
 11
896.489015
 21
687.623592
 31
0.0
  0
DIMENSION
  5
D4
330
C8
100
AcDbEntity
  8
DIM
 62
     1
100
AcDbDimension
  2
*D16
 10
1657.453074
 20
571.1942309999998
 30
0.0
 11
1588.654891
 21
579.1952309999998
 31
0.0
 12
-20441.05948999999
 22
9079.456648000002
 32
0.0
 70
    32
 71
     5
 42
-1.0
  3
B
100
AcDbAlignedDimension
 13
1519.856708
 23
602.5845369999998
 33
0.0
 14
1657.453074
 24
601.5261999999998
 34
0.0
100
AcDbRotatedDimension
1001
ACAD
1000
DSTYLE
1002
{
1070
   289
1070
     3
1002
}
  0
DIMENSION
  5
D5
330
C8
100
AcDbEntity
  8
DIM
 62
     1
100
AcDbDimension
  2
*D14
 10
1776.045761
 20
445.763785
 30
0.0
 11
1768.044761
 21
610.7636679999998
 31
0.0
 12
-20441.05948999999
 22
9079.456648000002
 32
0.0
 70
    32
 71
     5
 42
-1.0
  3
B
100
AcDbAlignedDimension
 13
1519.856708
 23
775.76355
 33
0.0
 14
1519.856708
 24
445.763785
 34
0.0
 50
90.0
100
AcDbRotatedDimension
1001
ACAD
1000
DSTYLE
1002
{
1070
   289
1070
     3
1002
}
  0
DIMENSION
  5
D6
330
C8
100
AcDbEntity
  8
DIM
 62
     1
100
AcDbDimension
  2
*D11
 10
1126.489015
 20
444.76355
 30
0.0
 11
1084.413274
 21
788.4289159999998
 31
0.0
 12
-20441.05948999999
 22
9079.456648000002
 32
0.0
 70
   164
 71
     5
 42
-1.0
  3
B
100
AcDbRadialDimension
 15
1078.000588
 25
840.8063160000001
 35
0.0
 40
0.0
1001
ACAD
1000
DSTYLE
1002
{
1070
   288
1070
     1
1070
   289
1070
     3
1002
}
  0
LINE
  5
D7
330
C8
100
AcDbEntity
  8
CENTER
 62
     1
100
AcDbLine
 10
1519.856708
 20
399.2668479999999
 30
0.0
 11
1519.856708
 21
805.9022269999998
 31
0.0
  0
LINE
  5
D8
330
C8
100
AcDbEntity
  8
CENTER
 62
     1
100
AcDbLine
 10
1126.489015
 20
886.269652
 30
0.0
 11
1126.489015
 21
366.8799620000001
 31
0.0
  0
ARC
  5
D9
330
C8
100
AcDbEntity
  8
DRAW
100
AcDbCircle
 10
456.488599
 20
610.76355
 30
0.0
 40
1201.0
100
AcDbArc
 50
356.1968509999999
 51
360.0
  0
DIMENSION
  5
DA
330
C8
100
AcDbEntity
  8
DIM
 62
     1
100
AcDbDimension
  2
*D10
 10
1519.856708
 20
341.690114
 30
0.0
 11
1253.172861
 21
349.691114
 31
0.0
 12
-20441.05948999999
 22
9079.456648000002
 32
0.0
 70
    32
 71
     5
 42
-1.0
  3
B
100
AcDbAlignedDimension
 13
986.489015
 23
445.76355
 33
0.0
 14
1519.856708
 24
399.2668479999999
 34
0.0
100
AcDbRotatedDimension
1001
ACAD
1000
DSTYLE
1002
{
1070
   289
1070
     3
1002
}
  0
LINE
  5
DB
330
C8
100
AcDbEntity
  8
DRAW
100
AcDbLine
 10
1521.122065999999
 20
445.763786
 30
0.0
 11
1266.489015
 21
445.76355
 31
0.0
  0
LINE
  5
DC
330
C8
100
AcDbEntity
  8
DRAW
100
AcDbLine
 10
986.489015
 20
445.76355
 30
0.0
 11
1266.489015
 21
445.76355
 31
0.0
  0
MTEXT
  5
DD
330
C8
100
AcDbEntity
  8
DIM
 62
     4
100
AcDbMText
 10
1233.141754
 20
557.0509659999999
 30
0.0
 40
40.0
 41
156.6151
 71
     1
 72
     5
  1
501
 73
     1
 44
1.0
  0
DIMENSION
  5
DE
330
C8
100
AcDbEntity
  8
DIM
 62
     1
100
AcDbDimension
  2
*D5
 10
1565.041982
 20
537.0723230000001
 30
0.0
 11
1598.283831
 21
509.95501
 31
0.0
 12
-20441.05948999999
 22
9079.456648000002
 32
0.0
 70
   164
 71
     5
 42
-1.0
  3
B
100
AcDbRadialDimension
 15
1634.7809
 25
480.1822249999998
 35
0.0
 40
0.0
1001
ACAD
1000
DSTYLE
1002
{
1070
   288
1070
     1
1070
   289
1070
     3
1002
}
  0
ARC
  5
DF
330
C8
100
AcDbEntity
  8
DRAW
100
AcDbCircle
 10
1520.488599
 20
1294.76355
 30
0.0
 40
849.0
100
AcDbArc
 50
269.957356
 51
273.365203
  0
ARC
  5
E0
330
C8
100
AcDbEntity
  8
DRAW
100
AcDbCircle
 10
1565.041982
 20
537.0723230000001
 30
0.0
 40
90.0
100
AcDbArc
 50
273.365203
 51
356.1968509999999
  0
LINE
  5
E1
330
C8
100
AcDbEntity
  8
DRAW
100
AcDbLine
 10
1520.488599
 20
775.76355
 30
0.0
 11
1338.730375999999
 21
775.76355
 31
0.0
  0
ARC
  5
E2
330
C8
100
AcDbEntity
  8
DRAW
100
AcDbCircle
 10
1126.489015
 20
444.76355
 30
0.0
 40
399.0
100
AcDbArc
 50
69.66611
 51
110.33389
  0
DIMENSION
  5
E3
330
C8
100
AcDbEntity
  8
DIM
 62
     1
100
AcDbDimension
  2
*D1
 10
1036.489015
 20
687.623592
 30
0.0
 11
969.4454059999999
 21
747.7998529999998
 31
0.0
 12
-20441.05948999999
 22
9079.456648000002
 32
0.0
 70
   164
 71
     5
 42
-1.0
  3
B
100
AcDbRadialDimension
 15
932.301986
 25
781.138633
 35
0.0
 40
0.0
1001
ACAD
1000
DSTYLE
1002
{
1070
   288
1070
     1
1070
   289
1070
     3
1002
}
  0
DIMENSION
  5
E4
330
C8
100
AcDbEntity
  8
DIM
 62
     1
100
AcDbDimension
  2
*D3
 10
1338.730375999999
 20
805.7635499999999
 30
0.0
 11
1328.633889
 21
725.142941
 31
0.0
 12
-20441.05948999999
 22
9079.456648000002
 32
0.0
 70
   164
 71
     5
 42
-1.0
  3
B
100
AcDbRadialDimension
 15
1335.002459
 25
775.996074
 35
0.0
 40
0.0
1001
ACAD
1000
DSTYLE
1002
{
1070
   288
1070
     1
1070
   289
1070
     3
1002
}
  0
DIMENSION
  5
E5
330
C8
100
AcDbEntity
  8
DIM
 62
     1
100
AcDbDimension
  2
*D2
 10
1216.489015
 20
687.623592
 30
0.0
 11
1242.305852
 21
757.2889029999998
 31
0.0
 12
-20441.05948999999
 22
9079.456648000002
 32
0.0
 70
   164
 71
     5
 42
-1.0
  3
B
100
AcDbRadialDimension
 15
1265.137664
 25
818.8992899999998
 35
0.0
 40
0.0
1001
ACAD
1000
DSTYLE
1002
{
1070
   279
1070
     1
1070
   288
1070
     1
1070
   289
1070
     3
1002
}
  0
ARC
  5
E6
330
C8
100
AcDbEntity
  8
DRAW
100
AcDbCircle
 10
1338.730375999999
 20
805.7635499999999
 30
0.0
 40
30.0
100
AcDbArc
 50
224.0225099999999
 51
270.0
  0
ARC
  5
E7
330
C8
100
AcDbEntity
  8
DRAW
100
AcDbCircle
 10
1216.489015
 20
687.623592
 30
0.0
 40
140.0
100
AcDbArc
 50
44.02250999999998
 51
69.66611
  0
DIMENSION
  5
E8
330
C8
100
AcDbEntity
  8
DIM
 62
     1
100
AcDbDimension
  2
*D7
 10
1565.041982
 20
684.4547769999998
 30
0.0
 11
1583.806026
 21
717.9097519999998
 31
0.0
 12
-20441.05948999999
 22
9079.456648000002
 32
0.0
 70
   164
 71
     5
 42
-1.0
  3
B
100
AcDbRadialDimension
 15
1609.068536
 25
762.9510349999998
 35
0.0
 40
0.0
1001
ACAD
1000
DSTYLE
1002
{
1070
   288
1070
     1
1070
   289
1070
     3
1002
}
  0
ARC
  5
E9
330
C8
100
AcDbEntity
  8
DRAW
100
AcDbCircle
 10
456.488599
 20
610.76355
 30
0.0
 40
1201.0
100
AcDbArc
 50
0.0
 51
3.803148999999999
  0
ARC
  5
EA
330
C8
100
AcDbEntity
  8
DRAW
100
AcDbCircle
 10
1520.488599
 20
-73.23645
 30
0.0
 40
849.0
100
AcDbArc
 50
86.63479699999998
 51
90.0
  0
ARC
  5
EB
330
C8
100
AcDbEntity
  8
DRAW
100
AcDbCircle
 10
1565.041982
 20
684.4547769999998
 30
0.0
 40
90.0
100
AcDbArc
 50
3.803148999999999
 51
86.63479699999998
  0
DIMENSION
  5
EC
330
C8
100
AcDbEntity
  8
DIM
 62
     1
100
AcDbDimension
  2
*D9
 10
1520.488599
 20
1294.76355
 30
0.0
 11
1527.361282
 21
498.5617109999999
 31
0.0
 12
-20441.05948999999
 22
9079.456648000002
 32
0.0
 70
   164
 71
     5
 42
-1.0
  3
B
100
AcDbRadialDimension
 15
1527.816754
 25
445.795177
 35
0.0
 40
0.0
1001
ACAD
1000
DSTYLE
1002
{
1070
   288
1070
     1
1070
   289
1070
     3
1002
}
  0
ENDBLK
  5
EE
330
C8
100
AcDbEntity
  8
0
100
AcDbBlockEnd
  0
BLOCK
  5
256
330
24C
100
AcDbEntity
  8
0
100
AcDbBlockBegin
  2
*D18
 70
     1
 10
0.0
 20
0.0
 30
0.0
  3
*D18
  1

  0
LINE
  5
24D
330
24C
100
AcDbEntity
  8
0
  6
ByBlock
 62
     0
100
AcDbLine
 10
591.505712
 20
1835.508686
 30
0.0
 11
591.505712
 21
1454.261311
 31
0.0
  0
LINE
  5
24E
330
24C
100
AcDbEntity
  8
0
  6
ByBlock
 62
     0
100
AcDbLine
 10
1360.49543
 20
1835.532447
 30
0.0
 11
1360.49543
 21
1454.261311
 31
0.0
  0
LINE
  5
24F
330
24C
100
AcDbEntity
  8
0
  6
ByBlock
 62
     0
100
AcDbLine
 10
602.935712
 20
1461.881311
 30
0.0
 11
1349.06543
 21
1461.881311
 31
0.0
  0
SOLID
  5
250
330
24C
100
AcDbEntity
  8
0
  6
ByBlock
 62
     0
100
AcDbTrace
 10
602.935712
 20
1463.786310999999
 30
0.0
 11
602.935712
 21
1459.976310999999
 31
0.0
 12
591.505712
 22
1461.881311
 32
0.0
 13
591.505712
 23
1461.881311
 33
0.0
  0
SOLID
  5
251
330
24C
100
AcDbEntity
  8
0
  6
ByBlock
 62
     0
100
AcDbTrace
 10
1349.06543
 20
1463.786310999999
 30
0.0
 11
1349.06543
 21
1459.976310999999
 31
0.0
 12
1360.49543
 22
1461.881311
 32
0.0
 13
1360.49543
 23
1461.881311
 33
0.0
  0
MTEXT
  5
252
330
24C
100
AcDbEntity
  8
0
  6
ByBlock
 62
     0
100
AcDbMText
 10
976.0005709999999
 20
1469.882311
 30
0.0
 40
11.43
 41
0.0
 71
     5
 72
     1
  1
\A1;769.0
 73
     1
 44
1.0
  0
POINT
  5
253
330
24C
100
AcDbEntity
  8
DEFPOINTS
  6
ByBlock
 62
     0
100
AcDbPoint
 10
591.505712
 20
1837.889936
 30
0.0
  0
POINT
  5
254
330
24C
100
AcDbEntity
  8
DEFPOINTS
  6
ByBlock
 62
     0
100
AcDbPoint
 10
1360.49543
 20
1837.913697
 30
0.0
  0
POINT
  5
255
330
24C
100
AcDbEntity
  8
DEFPOINTS
  6
ByBlock
 62
     0
100
AcDbPoint
 10
1360.49543
 20
1461.881311
 30
0.0
  0
ENDBLK
  5
257
330
24C
100
AcDbEntity
  8
0
100
AcDbBlockEnd
  0
BLOCK
  5
25E
330
258
100
AcDbEntity
  8
0
100
AcDbBlockBegin
  2
*D19
 70
     1
 10
0.0
 20
0.0
 30
0.0
  3
*D19
  1

  0
LINE
  5
259
330
258
100
AcDbEntity
  8
0
  6
ByBlock
 62
     0
100
AcDbLine
 10
1254.456118
 20
1936.699177
 30
0.0
 11
1326.292591
 21
2009.830938999999
 31
0.0
  0
MTEXT
  5
25A
330
258
100
AcDbEntity
  8
0
  6
ByBlock
 62
     0
100
AcDbMText
 10
1267.037039999999
 20
1960.924537
 30
0.0
 40
11.43
 41
0.0
 71
     5
 72
     1
  1
\A1;R100.0
 11
0.7007610588860054
 21
0.7133960599477436
 31
0.0
 73
     1
 44
1.0
  0
SOLID
  5
25B
330
258
100
AcDbEntity
  8
0
  6
ByBlock
 62
     0
100
AcDbTrace
 10
1316.923875
 20
2003.011768999999
 30
0.0
 11
1319.641915
 21
2000.34187
 31
0.0
 12
1326.292591
 22
2009.830938999999
 32
0.0
 13
1326.292591
 23
2009.830938999999
 33
0.0
  0
POINT
  5
25C
330
258
100
AcDbEntity
  8
DEFPOINTS
  6
ByBlock
 62
     0
100
AcDbPoint
 10
1326.292591
 20
2009.830938999999
 30
0.0
  0
POINT
  5
25D
330
258
100
AcDbEntity
  8
DEFPOINTS
  6
ByBlock
 62
     0
100
AcDbPoint
 10
1256.216509
 20
1938.491309
 30
0.0
  0
ENDBLK
  5
25F
330
258
100
AcDbEntity
  8
0
100
AcDbBlockEnd
  0
BLOCK
  5
26A
330
260
100
AcDbEntity
  8
0
100
AcDbBlockBegin
  2
*D20
 70
     1
 10
0.0
 20
0.0
 30
0.0
  3
*D20
  1

  0
LINE
  5
261
330
260
100
AcDbEntity
  8
0
  6
ByBlock
 62
     0
100
AcDbLine
 10
1120.52438
 20
1633.253838999999
 30
0.0
 11
1504.531281
 21
1633.253838999999
 31
0.0
  0
LINE
  5
262
330
260
100
AcDbEntity
  8
0
  6
ByBlock
 62
     0
100
AcDbLine
 10
1120.52438
 20
2043.253839
 30
0.0
 11
1504.531281
 21
2043.253839
 31
0.0
  0
LINE
  5
263
330
260
100
AcDbEntity
  8
0
  6
ByBlock
 62
     0
100
AcDbLine
 10
1496.911281
 20
1644.683839
 30
0.0
 11
1496.911281
 21
2031.823838999999
 31
0.0
  0
SOLID
  5
264
330
260
100
AcDbEntity
  8
0
  6
ByBlock
 62
     0
100
AcDbTrace
 10
1495.006280999999
 20
1644.683839
 30
0.0
 11
1498.816281
 21
1644.683839
 31
0.0
 12
1496.911281
 22
1633.253838999999
 32
0.0
 13
1496.911281
 23
1633.253838999999
 33
0.0
  0
SOLID
  5
265
330
260
100
AcDbEntity
  8
0
  6
ByBlock
 62
     0
100
AcDbTrace
 10
1495.006280999999
 20
2031.823838999999
 30
0.0
 11
1498.816281
 21
2031.823838999999
 31
0.0
 12
1496.911281
 22
2043.253839
 32
0.0
 13
1496.911281
 23
2043.253839
 33
0.0
  0
MTEXT
  5
266
330
260
100
AcDbEntity
  8
0
  6
ByBlock
 62
     0
100
AcDbMText
 10
1488.910281
 20
1838.253839
 30
0.0
 40
11.43
 41
0.0
 71
     5
 72
     1
  1
\A1;410.0
 11
0.0
 21
1.0
 31
0.0
 73
     1
 44
1.0
  0
POINT
  5
267
330
260
100
AcDbEntity
  8
DEFPOINTS
  6
ByBlock
 62
     0
100
AcDbPoint
 10
1118.143129999999
 20
1633.253838999999
 30
0.0
  0
POINT
  5
268
330
260
100
AcDbEntity
  8
DEFPOINTS
  6
ByBlock
 62
     0
100
AcDbPoint
 10
1118.143129999999
 20
2043.253839
 30
0.0
  0
POINT
  5
269
330
260
100
AcDbEntity
  8
DEFPOINTS
  6
ByBlock
 62
     0
100
AcDbPoint
 10
1496.911281
 20
2043.253839
 30
0.0
  0
ENDBLK
  5
26B
330
260
100
AcDbEntity
  8
0
100
AcDbBlockEnd
  0
BLOCK
  5
274
330
26C
100
AcDbEntity
  8
0
100
AcDbBlockBegin
  2
*D21
 70
     1
 10
0.0
 20
0.0
 30
0.0
  3
*D21
  1

  0
LINE
  5
26D
330
26C
100
AcDbEntity
  8
0
  6
ByBlock
 62
     0
100
AcDbLine
 10
504.761745
 20
1866.69026
 30
0.0
 11
591.2320829999997
 21
1864.992665
 31
0.0
  0
MTEXT
  5
26E
330
26C
100
AcDbEntity
  8
0
  6
ByBlock
 62
     0
100
AcDbMText
 10
536.726162
 20
1874.065273
 30
0.0
 40
11.43
 41
0.0
 71
     5
 72
     1
  1
\A1;R1201.7
 11
0.9998073521157147
 21
-0.0196280069126614
 31
0.0
 73
     1
 44
1.0
  0
SOLID
  5
26F
330
26C
100
AcDbEntity
  8
0
  6
ByBlock
 62
     0
100
AcDbTrace
 10
579.841677
 20
1867.12165
 30
0.0
 11
579.7668929999997
 21
1863.312384
 31
0.0
 12
591.2320829999997
 22
1864.992665
 32
0.0
 13
591.2320829999997
 23
1864.992665
 33
0.0
  0
LINE
  5
270
330
26C
100
AcDbEntity
  8
0
  6
ByBlock
 62
     0
100
AcDbLine
 10
1792.357671
 20
1841.405305
 30
0.0
 11
1793.043471
 21
1841.405305
 31
0.0
  0
LINE
  5
271
330
26C
100
AcDbEntity
  8
0
  6
ByBlock
 62
     0
100
AcDbLine
 10
1792.700571
 20
1841.062404999999
 30
0.0
 11
1792.700571
 21
1841.748205
 31
0.0
  0
POINT
  5
272
330
26C
100
AcDbEntity
  8
DEFPOINTS
  6
ByBlock
 62
     0
100
AcDbPoint
 10
591.2320829999997
 20
1864.992665
 30
0.0
  0
POINT
  5
273
330
26C
100
AcDbEntity
  8
DEFPOINTS
  6
ByBlock
 62
     0
100
AcDbPoint
 10
1792.700571
 20
1841.405305
 30
0.0
  0
ENDBLK
  5
275
330
26C
100
AcDbEntity
  8
0
100
AcDbBlockEnd
  0
BLOCK
  5
27E
330
276
100
AcDbEntity
  8
0
100
AcDbBlockBegin
  2
*D22
 70
     1
 10
0.0
 20
0.0
 30
0.0
  3
*D22
  1

  0
LINE
  5
277
330
276
100
AcDbEntity
  8
0
  6
ByBlock
 62
     0
100
AcDbLine
 10
1447.429263
 20
1875.785419
 30
0.0
 11
1360.973029
 21
1873.47876
 31
0.0
  0
MTEXT
  5
278
330
276
100
AcDbEntity
  8
0
  6
ByBlock
 62
     0
100
AcDbMText
 10
1415.413688999999
 20
1882.935088
 30
0.0
 40
11.43
 41
0.0
 71
     5
 72
     1
  1
\A1;R1201.7
 11
0.9996442654170836
 21
0.02667100708146
 31
0.0
 73
     1
 44
1.0
  0
SOLID
  5
279
330
276
100
AcDbEntity
  8
0
  6
ByBlock
 62
     0
100
AcDbTrace
 10
1372.348155
 20
1875.687927
 30
0.0
 11
1372.44977
 21
1871.879282
 31
0.0
 12
1360.973029
 22
1873.47876
 32
0.0
 13
1360.973029
 23
1873.47876
 33
0.0
  0
LINE
  5
27A
330
276
100
AcDbEntity
  8
0
  6
ByBlock
 62
     0
100
AcDbLine
 10
159.357602
 20
1841.428708
 30
0.0
 11
160.0434019999999
 21
1841.428708
 31
0.0
  0
LINE
  5
27B
330
276
100
AcDbEntity
  8
0
  6
ByBlock
 62
     0
100
AcDbLine
 10
159.700502
 20
1841.085808
 30
0.0
 11
159.700502
 21
1841.771608
 31
0.0
  0
POINT
  5
27C
330
276
100
AcDbEntity
  8
DEFPOINTS
  6
ByBlock
 62
     0
100
AcDbPoint
 10
1360.973029
 20
1873.47876
 30
0.0
  0
POINT
  5
27D
330
276
100
AcDbEntity
  8
DEFPOINTS
  6
ByBlock
 62
     0
100
AcDbPoint
 10
159.700502
 20
1841.428708
 30
0.0
  0
ENDBLK
  5
27F
330
276
100
AcDbEntity
  8
0
100
AcDbBlockEnd
  0
BLOCK
  5
286
330
280
100
AcDbEntity
  8
0
100
AcDbBlockBegin
  2
*D23
 70
     1
 10
0.0
 20
0.0
 30
0.0
  3
*D23
  1

  0
LINE
  5
281
330
280
100
AcDbEntity
  8
0
  6
ByBlock
 62
     0
100
AcDbLine
 10
674.9453139999998
 20
1725.193633
 30
0.0
 11
610.4850669999998
 21
1686.743279
 31
0.0
  0
MTEXT
  5
282
330
280
100
AcDbEntity
  8
0
  6
ByBlock
 62
     0
100
AcDbMText
 10
648.4327030000001
 20
1718.695236999999
 30
0.0
 40
11.43
 41
0.0
 71
     5
 72
     1
  1
\A1;R100.0
 11
0.858817220281063
 21
0.512282131397054
 31
0.0
 73
     1
 44
1.0
  0
SOLID
  5
283
330
280
100
AcDbEntity
  8
0
  6
ByBlock
 62
     0
100
AcDbTrace
 10
619.3254509999998
 20
1694.23471
 30
0.0
 11
621.277245
 21
1690.962616
 31
0.0
 12
610.4850669999998
 22
1686.743279
 32
0.0
 13
610.4850669999998
 23
1686.743279
 33
0.0
  0
POINT
  5
284
330
280
100
AcDbEntity
  8
DEFPOINTS
  6
ByBlock
 62
     0
100
AcDbPoint
 10
610.4850669999998
 20
1686.743279
 30
0.0
  0
POINT
  5
285
330
280
100
AcDbEntity
  8
DEFPOINTS
  6
ByBlock
 62
     0
100
AcDbPoint
 10
696.3667929999997
 20
1737.971484
 30
0.0
  0
ENDBLK
  5
287
330
280
100
AcDbEntity
  8
0
100
AcDbBlockEnd
  0
BLOCK
  5
28E
330
288
100
AcDbEntity
  8
0
100
AcDbBlockBegin
  2
*D24
 70
     1
 10
0.0
 20
0.0
 30
0.0
  3
*D24
  1

  0
LINE
  5
289
330
288
100
AcDbEntity
  8
0
  6
ByBlock
 62
     0
100
AcDbLine
 10
675.875582
 20
1953.451898
 30
0.0
 11
615.9791299999998
 21
1998.684279
 31
0.0
  0
MTEXT
  5
28A
330
288
100
AcDbEntity
  8
0
  6
ByBlock
 62
     0
100
AcDbMText
 10
659.8703689999999
 20
1975.564809
 30
0.0
 40
11.43
 41
0.0
 71
     5
 72
     1
  1
\A1;R100.0
 11
0.7980131126120275
 21
-0.602640085041863
 31
0.0
 73
     1
 44
1.0
  0
SOLID
  5
28B
330
288
100
AcDbEntity
  8
0
  6
ByBlock
 62
     0
100
AcDbTrace
 10
626.2484469999998
 20
1993.316314
 30
0.0
 11
623.952387
 21
1990.275884
 31
0.0
 12
615.9791299999998
 22
1998.684279
 32
0.0
 13
615.9791299999998
 23
1998.684279
 33
0.0
  0
POINT
  5
28C
330
288
100
AcDbEntity
  8
DEFPOINTS
  6
ByBlock
 62
     0
100
AcDbPoint
 10
615.9791299999998
 20
1998.684279
 30
0.0
  0
POINT
  5
28D
330
288
100
AcDbEntity
  8
DEFPOINTS
  6
ByBlock
 62
     0
100
AcDbPoint
 10
695.7804169999998
 20
1938.420238
 30
0.0
  0
ENDBLK
  5
28F
330
288
100
AcDbEntity
  8
0
100
AcDbBlockEnd
  0
BLOCK
  5
29A
330
290
100
AcDbEntity
  8
0
100
AcDbBlockBegin
  2
*D25
 70
     1
 10
0.0
 20
0.0
 30
0.0
  3
*D25
  1

  0
LINE
  5
291
330
290
100
AcDbEntity
  8
0
  6
ByBlock
 62
     0
100
AcDbLine
 10
776.2005019999998
 20
1630.872589
 30
0.0
 11
776.2005019999998
 21
1487.53582
 31
0.0
  0
LINE
  5
292
330
290
100
AcDbEntity
  8
0
  6
ByBlock
 62
     0
100
AcDbLine
 10
1174.700502
 20
1630.872589
 30
0.0
 11
1174.700502
 21
1487.53582
 31
0.0
  0
LINE
  5
293
330
290
100
AcDbEntity
  8
0
  6
ByBlock
 62
     0
100
AcDbLine
 10
787.630502
 20
1495.15582
 30
0.0
 11
1163.270502
 21
1495.15582
 31
0.0
  0
SOLID
  5
294
330
290
100
AcDbEntity
  8
0
  6
ByBlock
 62
     0
100
AcDbTrace
 10
787.630502
 20
1497.060819999999
 30
0.0
 11
787.630502
 21
1493.25082
 31
0.0
 12
776.2005019999998
 22
1495.15582
 32
0.0
 13
776.2005019999998
 23
1495.15582
 33
0.0
  0
SOLID
  5
295
330
290
100
AcDbEntity
  8
0
  6
ByBlock
 62
     0
100
AcDbTrace
 10
1163.270502
 20
1497.060819999999
 30
0.0
 11
1163.270502
 21
1493.25082
 31
0.0
 12
1174.700502
 22
1495.15582
 32
0.0
 13
1174.700502
 23
1495.15582
 33
0.0
  0
MTEXT
  5
296
330
290
100
AcDbEntity
  8
0
  6
ByBlock
 62
     0
100
AcDbMText
 10
975.4505019999999
 20
1503.15682
 30
0.0
 40
11.43
 41
0.0
 71
     5
 72
     1
  1
\A1;398.5
 73
     1
 44
1.0
  0
POINT
  5
297
330
290
100
AcDbEntity
  8
DEFPOINTS
  6
ByBlock
 62
     0
100
AcDbPoint
 10
776.2005019999998
 20
1633.253838999999
 30
0.0
  0
POINT
  5
298
330
290
100
AcDbEntity
  8
DEFPOINTS
  6
ByBlock
 62
     0
100
AcDbPoint
 10
1174.700502
 20
1633.253838999999
 30
0.0
  0
POINT
  5
299
330
290
100
AcDbEntity
  8
DEFPOINTS
  6
ByBlock
 62
     0
100
AcDbPoint
 10
1174.700502
 20
1495.15582
 30
0.0
  0
ENDBLK
  5
29B
330
290
100
AcDbEntity
  8
0
100
AcDbBlockEnd
  0
BLOCK
  5
2A2
330
29C
100
AcDbEntity
  8
0
100
AcDbBlockBegin
  2
*D26
 70
     1
 10
0.0
 20
0.0
 30
0.0
  3
*D26
  1

  0
LINE
  5
29D
330
29C
100
AcDbEntity
  8
0
  6
ByBlock
 62
     0
100
AcDbLine
 10
1262.764358
 20
1731.354044
 30
0.0
 11
1329.068413
 21
1670.07453
 31
0.0
  0
MTEXT
  5
29E
330
29C
100
AcDbEntity
  8
0
  6
ByBlock
 62
     0
100
AcDbMText
 10
1287.361249
 20
1719.515942
 30
0.0
 40
11.43
 41
0.0
 71
     5
 72
     1
  1
\A1;R100.0
 11
0.7343850684762704
 21
-0.6787330632871101
 31
0.0
 73
     1
 44
1.0
  0
SOLID
  5
29F
330
29C
100
AcDbEntity
  8
0
  6
ByBlock
 62
     0
100
AcDbTrace
 10
1321.967378
 20
1679.231453
 30
0.0
 11
1319.381405
 21
1676.433446
 31
0.0
 12
1329.068413
 22
1670.07453
 32
0.0
 13
1329.068413
 23
1670.07453
 33
0.0
  0
POINT
  5
2A0
330
29C
100
AcDbEntity
  8
DEFPOINTS
  6
ByBlock
 62
     0
100
AcDbPoint
 10
1329.068413
 20
1670.07453
 30
0.0
  0
POINT
  5
2A1
330
29C
100
AcDbEntity
  8
DEFPOINTS
  6
ByBlock
 62
     0
100
AcDbPoint
 10
1255.62991
 20
1737.947840999999
 30
0.0
  0
ENDBLK
  5
2A3
330
29C
100
AcDbEntity
  8
0
100
AcDbBlockEnd
  0
BLOCK
  5
2BD
330
2A4
100
AcDbEntity
  8
0
100
AcDbBlockBegin
  2
A$C55375C64
 70
     0
 10
0.0
 20
0.0
 30
0.0
  3
A$C55375C64
  1

  0
LINE
  5
2A5
330
2A4
100
AcDbEntity
  8
0
100
AcDbLine
 10
1015.342900690479
 20
588.9925263474823
 30
0.0
 11
616.8429006904792
 21
588.9925263474823
 31
0.0
  0
LINE
  5
2A6
330
2A4
100
AcDbEntity
  8
0
100
AcDbLine
 10
616.8429006904792
 20
178.9925263474823
 30
0.0
 11
1015.342900690479
 21
178.9925263474823
 31
0.0
  0
DIMENSION
  5
2A7
330
2A4
100
AcDbEntity
  8
DIM
100
AcDbDimension
  2
*D25
 10
1015.342900690479
 20
40.89450734748242
 30
0.0
 11
816.0929006904789
 21
48.89550734748239
 31
0.0
 12
-159.3576013095207
 22
-1454.261312652517
 32
0.0
 70
    32
 71
     5
 42
-1.0
  3
B
100
AcDbAlignedDimension
 13
616.8429006904792
 23
178.9925263474823
 33
0.0
 14
1015.342900690479
 24
178.9925263474823
 34
0.0
100
AcDbRotatedDimension
1001
ACAD
1000
DSTYLE
1002
{
1070
   289
1070
     3
1002
}
  0
DIMENSION
  5
2A8
330
2A4
100
AcDbEntity
  8
DIM
100
AcDbDimension
  2
*D22
 10
0.3429006904792402
 20
387.1673953474823
 30
0.0
 11
1256.269478690479
 21
420.6756223474824
 31
0.0
 12
-159.3576013095207
 22
-1454.261312652517
 32
0.0
 70
   164
 71
     5
 42
-1.0
  3
B
100
AcDbRadialDimension
 15
1201.615427690479
 25
419.2174473474826
 35
0.0
 40
0.0
1001
ACAD
1000
DSTYLE
1002
{
1070
   288
1070
     1
1070
   289
1070
     3
1002
}
  0
DIMENSION
  5
2A9
330
2A4
100
AcDbEntity
  8
DIM
100
AcDbDimension
  2
*D21
 10
1633.342969690479
 20
387.1439923474826
 30
0.0
 11
377.2115146904793
 21
411.8045023474823
 31
0.0
 12
-159.3576013095207
 22
-1454.261312652517
 32
0.0
 70
   164
 71
     5
 42
-1.0
  3
B
100
AcDbRadialDimension
 15
431.8744816904791
 25
410.7313523474822
 35
0.0
 40
0.0
1001
ACAD
1000
DSTYLE
1002
{
1070
   288
1070
     1
1070
   289
1070
     3
1002
}
  0
LINE
  5
2AA
330
2A4
100
AcDbEntity
  8
CENTER
100
AcDbLine
 10
1279.165230690479
 20
383.6286233474825
 30
0.0
 11
383.1288956904792
 21
383.6286233474825
 31
0.0
  0
DIMENSION
  5
2AB
330
2A4
100
AcDbEntity
  8
DIM
100
AcDbDimension
  2
*D18
 10
1201.137828690479
 20
7.619998347482351
 30
0.0
 11
816.6429696904792
 21
15.62099834748233
 31
0.0
 12
-159.3576013095207
 22
-1454.261312652517
 32
0.0
 70
    32
 71
     5
 42
-1.0
  3
B
100
AcDbAlignedDimension
 13
432.1481106904792
 23
383.6286233474825
 33
0.0
 14
1201.137828690479
 24
383.6523843474823
 34
0.0
100
AcDbRotatedDimension
1001
ACAD
1000
DSTYLE
1002
{
1070
   289
1070
     3
1002
}
  0
ARC
  5
2AC
330
2A4
100
AcDbEntity
  8
0
100
AcDbCircle
 10
1633.842969690479
 20
387.1439923474826
 30
0.0
 40
1201.7
100
AcDbArc
 50
174.9480299999999
 51
185.387186
  0
ARC
  5
2AD
330
2A4
100
AcDbEntity
  8
0
100
AcDbCircle
 10
537.0091916904791
 20
283.7101713474824
 30
0.0
 40
100.0
100
AcDbArc
 50
185.387186
 51
263.3119120000001
  0
DIMENSION
  5
2AE
330
2A4
100
AcDbEntity
  8
DIM
100
AcDbDimension
  2
*D23
 10
537.0091916904791
 20
283.7101713474824
 30
0.0
 11
493.173870690479
 21
257.5625273474822
 31
0.0
 12
-159.3576013095207
 22
-1454.261312652517
 32
0.0
 70
   164
 71
     5
 42
-1.0
  3
B
100
AcDbRadialDimension
 15
451.1274656904792
 25
232.4819663474823
 35
0.0
 40
0.0
1001
ACAD
1000
DSTYLE
1002
{
1070
   288
1070
     1
1070
   289
1070
     3
1002
}
  0
ARC
  5
2AF
330
2A4
100
AcDbEntity
  8
0
100
AcDbCircle
 10
617.7570326904791
 20
972.3192903474826
 30
0.0
 40
793.3272909999999
100
AcDbArc
 50
263.3119120000001
 51
269.933979
  0
ARC
  5
2B0
330
2A4
100
AcDbEntity
  8
0
100
AcDbCircle
 10
536.4228156904792
 20
484.1589253474823
 30
0.0
 40
100.0
100
AcDbArc
 50
96.70306
 51
174.9480299999999
  0
DIMENSION
  5
2B1
330
2A4
100
AcDbEntity
  8
DIM
100
AcDbDimension
  2
*D24
 10
536.4228156904792
 20
484.1589253474823
 30
0.0
 11
495.6910416904792
 21
514.9185963474823
 31
0.0
 12
-159.3576013095207
 22
-1454.261312652517
 32
0.0
 70
   164
 71
     5
 42
-1.0
  3
B
100
AcDbRadialDimension
 15
456.6215286904792
 25
544.4229663474823
 35
0.0
 40
0.0
1001
ACAD
1000
DSTYLE
1002
{
1070
   288
1070
     1
1070
   289
1070
     3
1002
}
  0
ARC
  5
2B2
330
2A4
100
AcDbEntity
  8
0
100
AcDbCircle
 10
619.0106126904793
 20
-218.5535956525174
 30
0.0
 40
807.5490310000001
100
AcDbArc
 50
90.1538
 51
96.70306
  0
DIMENSION
  5
2B3
330
2A4
100
AcDbEntity
  8
DIM
100
AcDbDimension
  2
*D20
 10
1337.553679690479
 20
588.9925263474823
 30
0.0
 11
1329.552679690479
 21
383.9925263474825
 31
0.0
 12
-159.3576013095207
 22
-1454.261312652517
 32
0.0
 70
    32
 71
     5
 42
-1.0
  3
B
100
AcDbAlignedDimension
 13
958.7855286904794
 23
178.9925263474823
 33
0.0
 14
958.7855286904794
 24
588.9925263474823
 34
0.0
 50
90.0
100
AcDbRotatedDimension
1001
ACAD
1000
DSTYLE
1002
{
1070
   289
1070
     3
1002
}
  0
ARC
  5
2B4
330
2A4
100
AcDbEntity
  8
0
100
AcDbCircle
 10
-0.5570303095207692
 20
387.1673953474823
 30
0.0
 40
1201.7
100
AcDbArc
 50
354.610357
 51
5.054458999999988
  0
MTEXT
  5
2B5
330
2A4
100
AcDbEntity
  8
DIM
 62
     4
100
AcDbMText
 10
885.0721406904792
 20
338.7799763474824
 30
0.0
 40
50.0
 41
156.6151
 71
     1
 72
     5
  1
\f\M+5BBAA\M+5CEC4\M+5D0C2\M+5CEBA|b0|i0|c134|p2;\C3;502
 73
     1
 44
1.0
  0
LINE
  5
2B6
330
2A4
100
AcDbEntity
  8
CENTER
100
AcDbLine
 10
816.8429006904791
 20
666.5124133474827
 30
0.0
 11
816.8429006904791
 21
75.19201434748243
 31
0.0
  0
ARC
  5
2B7
330
2A4
100
AcDbEntity
  8
0
100
AcDbCircle
 10
1015.342900690479
 20
978.9925263474824
 30
0.0
 40
800.0
100
AcDbArc
 50
270.0
 51
276.6390089999999
  0
ARC
  5
2B8
330
2A4
100
AcDbEntity
  8
0
100
AcDbCircle
 10
1096.272308690478
 20
283.6865283474823
 30
0.0
 40
100.0
100
AcDbArc
 50
276.6390089999999
 51
354.610357
  0
DIMENSION
  5
2B9
330
2A4
100
AcDbEntity
  8
DIM
100
AcDbDimension
  2
*D26
 10
1096.272308690478
 20
283.6865283474823
 30
0.0
 11
1122.573103690479
 21
259.3788153474827
 31
0.0
 12
-159.3576013095207
 22
-1454.261312652517
 32
0.0
 70
   164
 71
     5
 42
-1.0
  3
B
100
AcDbRadialDimension
 15
1169.710811690479
 25
215.8132173474826
 35
0.0
 40
0.0
1001
ACAD
1000
DSTYLE
1002
{
1070
   288
1070
     1
1070
   289
1070
     3
1002
}
  0
ARC
  5
2BA
330
2A4
100
AcDbEntity
  8
0
100
AcDbCircle
 10
1015.342900690479
 20
-211.0074736525175
 30
0.0
 40
800.0
100
AcDbArc
 50
83.31265100000001
 51
90.0
  0
ARC
  5
2BB
330
2A4
100
AcDbEntity
  8
0
100
AcDbCircle
 10
1096.858907690479
 20
484.2299963474824
 30
0.0
 40
100.0
100
AcDbArc
 50
5.054458999999997
 51
83.31265100000001
  0
DIMENSION
  5
2BC
330
2A4
100
AcDbEntity
  8
DIM
100
AcDbDimension
  2
*D19
 10
1096.858907690479
 20
484.2299963474824
 30
0.0
 11
1113.387322690479
 21
501.0564373474823
 31
0.0
 12
-159.3576013095207
 22
-1454.261312652517
 32
0.0
 70
   164
 71
     5
 42
-1.0
  3
B
100
AcDbRadialDimension
 15
1166.934989690479
 25
555.5696263474827
 35
0.0
 40
0.0
1001
ACAD
1000
DSTYLE
1002
{
1070
   288
1070
     1
1070
   289
1070
     3
1002
}
  0
ENDBLK
  5
2BE
330
2A4
100
AcDbEntity
  8
0
100
AcDbBlockEnd
  0
BLOCK
  5
2C7
330
2C1
100
AcDbEntity
  8
0
100
AcDbBlockBegin
  2
*D28
 70
     1
 10
0.0
 20
0.0
 30
0.0
  3
*D28
  1

  0
LINE
  5
2C2
330
2C1
100
AcDbEntity
  8
0
  6
ByBlock
 62
     0
100
AcDbLine
 10
1883.330311
 20
1249.50434
 30
0.0
 11
1789.975888
 21
1344.702709
 31
0.0
  0
MTEXT
  5
2C3
330
2C1
100
AcDbEntity
  8
0
  6
ByBlock
 62
     0
100
AcDbMText
 10
1861.366078999999
 20
1293.326141999999
 30
0.0
 40
20.0
 41
0.0
 71
     5
 72
     1
  1
\A1;R110.9
 11
0.7001579688051625
 21
-0.713987968188981
 31
0.0
 73
     1
 44
1.0
  0
SOLID
  5
2C4
330
2C1
100
AcDbEntity
  8
0
  6
ByBlock
 62
     0
100
AcDbTrace
 10
1806.359009999999
 20
1332.756814
 30
0.0
 11
1801.599092
 21
1328.089093
 31
0.0
 12
1789.975888
 22
1344.702709
 32
0.0
 13
1789.975888
 23
1344.702709
 33
0.0
  0
POINT
  5
2C5
330
2C1
100
AcDbEntity
  8
DEFPOINTS
  6
ByBlock
 62
     0
100
AcDbPoint
 10
1789.975888
 20
1344.702709
 30
0.0
  0
POINT
  5
2C6
330
2C1
100
AcDbEntity
  8
DEFPOINTS
  6
ByBlock
 62
     0
100
AcDbPoint
 10
1867.623429
 20
1265.521466
 30
0.0
  0
ENDBLK
  5
2C8
330
2C1
100
AcDbEntity
  8
0
100
AcDbBlockEnd
  0
BLOCK
  5
2CF
330
2C9
100
AcDbEntity
  8
0
100
AcDbBlockBegin
  2
*D29
 70
     1
 10
0.0
 20
0.0
 30
0.0
  3
*D29
  1

  0
LINE
  5
2CA
330
2C9
100
AcDbEntity
  8
0
  6
ByBlock
 62
     0
100
AcDbLine
 10
2025.862807
 20
1246.646673
 30
0.0
 11
2097.923535
 21
1358.82969
 31
0.0
  0
MTEXT
  5
2CB
330
2C9
100
AcDbEntity
  8
0
  6
ByBlock
 62
     0
100
AcDbMText
 10
2038.463472
 20
1294.017560999999
 30
0.0
 40
20.0
 41
0.0
 71
     5
 72
     1
  1
\A1;R110.9
 11
0.5404549642883586
 21
0.8413729444046019
 31
0.0
 73
     1
 44
1.0
  0
SOLID
  5
2CC
330
2C9
100
AcDbEntity
  8
0
  6
ByBlock
 62
     0
100
AcDbTrace
 10
2084.30985
 20
1343.803756
 30
0.0
 11
2089.919001
 21
1340.200719
 31
0.0
 12
2097.923535
 22
1358.82969
 32
0.0
 13
2097.923535
 23
1358.82969
 33
0.0
  0
POINT
  5
2CD
330
2C9
100
AcDbEntity
  8
DEFPOINTS
  6
ByBlock
 62
     0
100
AcDbPoint
 10
2097.923535
 20
1358.82969
 30
0.0
  0
POINT
  5
2CE
330
2C9
100
AcDbEntity
  8
DEFPOINTS
  6
ByBlock
 62
     0
100
AcDbPoint
 10
2037.987023999999
 20
1265.521466
 30
0.0
  0
ENDBLK
  5
2D0
330
2C9
100
AcDbEntity
  8
0
100
AcDbBlockEnd
  0
BLOCK
  5
2D8
330
2D1
100
AcDbEntity
  8
0
100
AcDbBlockBegin
  2
*D30
 70
     1
 10
0.0
 20
0.0
 30
0.0
  3
*D30
  1

  0
LINE
  5
2D2
330
2D1
100
AcDbEntity
  8
0
  6
ByBlock
 62
     0
100
AcDbLine
 10
2097.780198999999
 20
1235.110300999999
 30
0.0
 11
2135.028269
 21
1327.914295
 31
0.0
  0
MTEXT
  5
2D3
330
2D1
100
AcDbEntity
  8
0
  6
ByBlock
 62
     0
100
AcDbMText
 10
2095.034021
 20
1268.53871
 30
0.0
 40
20.0
 41
0.0
 71
     5
 72
     1
  1
\A1;R30
 11
0.3724809372442309
 21
0.9280398436433962
 31
0.0
 73
     1
 44
1.0
  0
LINE
  5
2D4
330
2D1
100
AcDbEntity
  8
0
  6
ByBlock
 62
     0
100
AcDbLine
 10
2146.20269
 20
1355.755492999999
 30
0.0
 11
2135.028269
 21
1327.914295
 31
0.0
  0
SOLID
  5
2D5
330
2D1
100
AcDbEntity
  8
0
  6
ByBlock
 62
     0
100
AcDbTrace
 10
2124.485188
 20
1310.595098999999
 30
0.0
 11
2130.672121
 21
1308.111894
 31
0.0
 12
2135.028269
 22
1327.914295
 32
0.0
 13
2135.028269
 23
1327.914295
 33
0.0
  0
POINT
  5
2D6
330
2D1
100
AcDbEntity
  8
DEFPOINTS
  6
ByBlock
 62
     0
100
AcDbPoint
 10
2135.028269
 20
1327.914295
 30
0.0
  0
POINT
  5
2D7
330
2D1
100
AcDbEntity
  8
DEFPOINTS
  6
ByBlock
 62
     0
100
AcDbPoint
 10
2146.20269
 20
1355.755492999999
 30
0.0
  0
ENDBLK
  5
2D9
330
2D1
100
AcDbEntity
  8
0
100
AcDbBlockEnd
  0
BLOCK
  5
2E0
330
2DA
100
AcDbEntity
  8
0
100
AcDbBlockBegin
  2
*D31
 70
     1
 10
0.0
 20
0.0
 30
0.0
  3
*D31
  1

  0
LINE
  5
2DB
330
2DA
100
AcDbEntity
  8
0
  6
ByBlock
 62
     0
100
AcDbLine
 10
2392.173948
 20
1202.564179
 30
0.0
 11
2478.917825
 21
1299.391344
 31
0.0
  0
MTEXT
  5
2DC
330
2DA
100
AcDbEntity
  8
0
  6
ByBlock
 62
     0
100
AcDbMText
 10
2411.028309
 20
1246.090184
 30
0.0
 40
20.0
 41
0.0
 71
     5
 72
     1
  1
\A1;R85.9
 11
0.6672609889578319
 21
0.7448239876742803
 31
0.0
 73
     1
 44
1.0
  0
SOLID
  5
2DD
330
2DA
100
AcDbEntity
  8
0
  6
ByBlock
 62
     0
100
AcDbTrace
 10
2463.089865
 20
1286.719059
 30
0.0
 11
2468.055361
 21
1282.270655
 31
0.0
 12
2478.917825
 22
1299.391344
 32
0.0
 13
2478.917825
 23
1299.391344
 33
0.0
  0
POINT
  5
2DE
330
2DA
100
AcDbEntity
  8
DEFPOINTS
  6
ByBlock
 62
     0
100
AcDbPoint
 10
2478.917825
 20
1299.391344
 30
0.0
  0
POINT
  5
2DF
330
2DA
100
AcDbEntity
  8
DEFPOINTS
  6
ByBlock
 62
     0
100
AcDbPoint
 10
2421.60014
 20
1235.410933
 30
0.0
  0
ENDBLK
  5
2E1
330
2DA
100
AcDbEntity
  8
0
100
AcDbBlockEnd
  0
BLOCK
  5
2EC
330
2E2
100
AcDbEntity
  8
0
100
AcDbBlockBegin
  2
*D32
 70
     1
 10
0.0
 20
0.0
 30
0.0
  3
*D32
  1

  0
LINE
  5
2E3
330
2E2
100
AcDbEntity
  8
0
  6
ByBlock
 62
     0
100
AcDbLine
 10
2350.177223
 20
1325.755492999999
 30
0.0
 11
2694.375469000001
 21
1325.755492999999
 31
0.0
  0
LINE
  5
2E4
330
2E2
100
AcDbEntity
  8
0
  6
ByBlock
 62
     0
100
AcDbLine
 10
2350.177223
 20
904.954975
 30
0.0
 11
2694.375469000001
 21
904.954975
 31
0.0
  0
LINE
  5
2E5
330
2E2
100
AcDbEntity
  8
0
  6
ByBlock
 62
     0
100
AcDbLine
 10
2686.755469
 20
1314.325493
 30
0.0
 11
2686.755469
 21
916.384975
 31
0.0
  0
SOLID
  5
2E6
330
2E2
100
AcDbEntity
  8
0
  6
ByBlock
 62
     0
100
AcDbTrace
 10
2684.850469
 20
1314.325493
 30
0.0
 11
2688.660469
 21
1314.325493
 31
0.0
 12
2686.755469
 22
1325.755492999999
 32
0.0
 13
2686.755469
 23
1325.755492999999
 33
0.0
  0
SOLID
  5
2E7
330
2E2
100
AcDbEntity
  8
0
  6
ByBlock
 62
     0
100
AcDbTrace
 10
2684.850469
 20
916.384975
 30
0.0
 11
2688.660469
 21
916.384975
 31
0.0
 12
2686.755469
 22
904.954975
 32
0.0
 13
2686.755469
 23
904.954975
 33
0.0
  0
MTEXT
  5
2E8
330
2E2
100
AcDbEntity
  8
0
  6
ByBlock
 62
     0
100
AcDbMText
 10
2678.754469
 20
1115.355234
 30
0.0
 40
11.43
 41
0.0
 71
     5
 72
     1
  1
\A1;420.8
 11
0.0
 21
1.0
 31
0.0
 73
     1
 44
1.0
  0
POINT
  5
2E9
330
2E2
100
AcDbEntity
  8
DEFPOINTS
  6
ByBlock
 62
     0
100
AcDbPoint
 10
2347.795972999999
 20
1325.755492999999
 30
0.0
  0
POINT
  5
2EA
330
2E2
100
AcDbEntity
  8
DEFPOINTS
  6
ByBlock
 62
     0
100
AcDbPoint
 10
2347.795972999999
 20
904.954975
 30
0.0
  0
POINT
  5
2EB
330
2E2
100
AcDbEntity
  8
DEFPOINTS
  6
ByBlock
 62
     0
100
AcDbPoint
 10
2686.755469
 20
904.954975
 30
0.0
  0
ENDBLK
  5
2ED
330
2E2
100
AcDbEntity
  8
0
100
AcDbBlockEnd
  0
BLOCK
  5
2F8
330
2EE
100
AcDbEntity
  8
0
100
AcDbBlockBegin
  2
*D33
 70
     1
 10
0.0
 20
0.0
 30
0.0
  3
*D33
  1

  0
LINE
  5
2EF
330
2EE
100
AcDbEntity
  8
0
  6
ByBlock
 62
     0
100
AcDbLine
 10
1950.423976999999
 20
1379.754975
 30
0.0
 11
1633.914403
 21
1379.754975
 31
0.0
  0
LINE
  5
2F0
330
2EE
100
AcDbEntity
  8
0
  6
ByBlock
 62
     0
100
AcDbLine
 10
1950.423976999999
 20
904.954975
 30
0.0
 11
1633.914403
 21
904.954975
 31
0.0
  0
LINE
  5
2F1
330
2EE
100
AcDbEntity
  8
0
  6
ByBlock
 62
     0
100
AcDbLine
 10
1641.534403
 20
1368.324975
 30
0.0
 11
1641.534403
 21
916.384975
 31
0.0
  0
SOLID
  5
2F2
330
2EE
100
AcDbEntity
  8
0
  6
ByBlock
 62
     0
100
AcDbTrace
 10
1639.629403
 20
1368.324975
 30
0.0
 11
1643.439403
 21
1368.324975
 31
0.0
 12
1641.534403
 22
1379.754975
 32
0.0
 13
1641.534403
 23
1379.754975
 33
0.0
  0
SOLID
  5
2F3
330
2EE
100
AcDbEntity
  8
0
  6
ByBlock
 62
     0
100
AcDbTrace
 10
1639.629403
 20
916.384975
 30
0.0
 11
1643.439403
 21
916.384975
 31
0.0
 12
1641.534403
 22
904.954975
 32
0.0
 13
1641.534403
 23
904.954975
 33
0.0
  0
MTEXT
  5
2F4
330
2EE
100
AcDbEntity
  8
0
  6
ByBlock
 62
     0
100
AcDbMText
 10
1633.533402999999
 20
1142.354975
 30
0.0
 40
11.43
 41
0.0
 71
     5
 72
     1
  1
\A1;474.8
 11
0.0
 21
1.0
 31
0.0
 73
     1
 44
1.0
  0
POINT
  5
2F5
330
2EE
100
AcDbEntity
  8
DEFPOINTS
  6
ByBlock
 62
     0
100
AcDbPoint
 10
1952.805227
 20
1379.754975
 30
0.0
  0
POINT
  5
2F6
330
2EE
100
AcDbEntity
  8
DEFPOINTS
  6
ByBlock
 62
     0
100
AcDbPoint
 10
1952.805227
 20
904.954975
 30
0.0
  0
POINT
  5
2F7
330
2EE
100
AcDbEntity
  8
DEFPOINTS
  6
ByBlock
 62
     0
100
AcDbPoint
 10
1641.534403
 20
904.954975
 30
0.0
  0
ENDBLK
  5
2F9
330
2EE
100
AcDbEntity
  8
0
100
AcDbBlockEnd
  0
BLOCK
  5
304
330
2FA
100
AcDbEntity
  8
0
100
AcDbBlockBegin
  2
*D34
 70
     1
 10
0.0
 20
0.0
 30
0.0
  3
*D34
  1

  0
LINE
  5
2FB
330
2FA
100
AcDbEntity
  8
0
  6
ByBlock
 62
     0
100
AcDbLine
 10
1751.910082
 20
1139.680487
 30
0.0
 11
1751.910082
 21
751.7023619999998
 31
0.0
  0
LINE
  5
2FC
330
2FA
100
AcDbEntity
  8
0
  6
ByBlock
 62
     0
100
AcDbLine
 10
2513.692385000001
 20
1112.712785
 30
0.0
 11
2513.692385000001
 21
751.7023619999998
 31
0.0
  0
LINE
  5
2FD
330
2FA
100
AcDbEntity
  8
0
  6
ByBlock
 62
     0
100
AcDbLine
 10
1763.340082
 20
759.3223619999998
 30
0.0
 11
2502.262385
 21
759.3223619999998
 31
0.0
  0
SOLID
  5
2FE
330
2FA
100
AcDbEntity
  8
0
  6
ByBlock
 62
     0
100
AcDbTrace
 10
1763.340082
 20
761.2273619999997
 30
0.0
 11
1763.340082
 21
757.417362
 31
0.0
 12
1751.910082
 22
759.3223619999998
 32
0.0
 13
1751.910082
 23
759.3223619999998
 33
0.0
  0
SOLID
  5
2FF
330
2FA
100
AcDbEntity
  8
0
  6
ByBlock
 62
     0
100
AcDbTrace
 10
2502.262385
 20
761.2273619999997
 30
0.0
 11
2502.262385
 21
757.417362
 31
0.0
 12
2513.692385000001
 22
759.3223619999998
 32
0.0
 13
2513.692385000001
 23
759.3223619999998
 33
0.0
  0
MTEXT
  5
300
330
2FA
100
AcDbEntity
  8
0
  6
ByBlock
 62
     0
100
AcDbMText
 10
2132.801233999999
 20
767.3233619999997
 30
0.0
 40
11.43
 41
0.0
 71
     5
 72
     1
  1
\A1;761.8
 73
     1
 44
1.0
  0
POINT
  5
301
330
2FA
100
AcDbEntity
  8
DEFPOINTS
  6
ByBlock
 62
     0
100
AcDbPoint
 10
1751.910082
 20
1142.061737
 30
0.0
  0
POINT
  5
302
330
2FA
100
AcDbEntity
  8
DEFPOINTS
  6
ByBlock
 62
     0
100
AcDbPoint
 10
2513.692385000001
 20
1115.094035
 30
0.0
  0
POINT
  5
303
330
2FA
100
AcDbEntity
  8
DEFPOINTS
  6
ByBlock
 62
     0
100
AcDbPoint
 10
2513.692385000001
 20
759.3223619999998
 30
0.0
  0
ENDBLK
  5
305
330
2FA
100
AcDbEntity
  8
0
100
AcDbBlockEnd
  0
BLOCK
  5
310
330
306
100
AcDbEntity
  8
0
100
AcDbBlockBegin
  2
*D35
 70
     1
 10
0.0
 20
0.0
 30
0.0
  3
*D35
  1

  0
LINE
  5
307
330
306
100
AcDbEntity
  8
0
  6
ByBlock
 62
     0
100
AcDbLine
 10
1952.805227
 20
869.2471289999998
 30
0.0
 11
1952.805227
 21
829.0856319999997
 31
0.0
  0
LINE
  5
308
330
306
100
AcDbEntity
  8
0
  6
ByBlock
 62
     0
100
AcDbLine
 10
2347.795972999999
 20
831.298903
 30
0.0
 11
2347.795972999999
 21
844.3256319999997
 31
0.0
  0
LINE
  5
309
330
306
100
AcDbEntity
  8
0
  6
ByBlock
 62
     0
100
AcDbLine
 10
1964.235227
 20
836.7056319999997
 30
0.0
 11
2336.365972999999
 21
836.7056319999997
 31
0.0
  0
SOLID
  5
30A
330
306
100
AcDbEntity
  8
0
  6
ByBlock
 62
     0
100
AcDbTrace
 10
1964.235227
 20
838.6106319999999
 30
0.0
 11
1964.235227
 21
834.8006320000001
 31
0.0
 12
1952.805227
 22
836.7056319999997
 32
0.0
 13
1952.805227
 23
836.7056319999997
 33
0.0
  0
SOLID
  5
30B
330
306
100
AcDbEntity
  8
0
  6
ByBlock
 62
     0
100
AcDbTrace
 10
2336.365972999999
 20
838.6106319999999
 30
0.0
 11
2336.365972999999
 21
834.8006320000001
 31
0.0
 12
2347.795972999999
 22
836.7056319999997
 32
0.0
 13
2347.795972999999
 23
836.7056319999997
 33
0.0
  0
MTEXT
  5
30C
330
306
100
AcDbEntity
  8
0
  6
ByBlock
 62
     0
100
AcDbMText
 10
2150.3006
 20
844.7066320000001
 30
0.0
 40
11.43
 41
0.0
 71
     5
 72
     1
  1
\A1;395.0
 73
     1
 44
1.0
  0
POINT
  5
30D
330
306
100
AcDbEntity
  8
DEFPOINTS
  6
ByBlock
 62
     0
100
AcDbPoint
 10
1952.805227
 20
871.6283789999996
 30
0.0
  0
POINT
  5
30E
330
306
100
AcDbEntity
  8
DEFPOINTS
  6
ByBlock
 62
     0
100
AcDbPoint
 10
2347.795972999999
 20
828.917653
 30
0.0
  0
POINT
  5
30F
330
306
100
AcDbEntity
  8
DEFPOINTS
  6
ByBlock
 62
     0
100
AcDbPoint
 10
2347.795972999999
 20
836.7056319999997
 30
0.0
  0
ENDBLK
  5
311
330
306
100
AcDbEntity
  8
0
100
AcDbBlockEnd
  0
BLOCK
  5
31D
330
312
100
AcDbEntity
  8
0
100
AcDbBlockBegin
  2
*D36
 70
     1
 10
0.0
 20
0.0
 30
0.0
  3
*D36
  1

  0
LINE
  5
313
330
312
100
AcDbEntity
  8
0
  6
ByBlock
 62
     0
100
AcDbLine
 10
2345.414723
 20
1115.355234
 30
0.0
 11
2183.140164999999
 21
1115.355234
 31
0.0
  0
LINE
  5
314
330
312
100
AcDbEntity
  8
0
  6
ByBlock
 62
     0
100
AcDbLine
 10
1952.502103
 20
1142.354975
 30
0.0
 11
2198.380165
 21
1142.354975
 31
0.0
  0
LINE
  5
315
330
312
100
AcDbEntity
  8
0
  6
ByBlock
 62
     0
100
AcDbLine
 10
2190.760165
 20
1103.925234
 30
0.0
 11
2190.760165
 21
1092.495234
 31
0.0
  0
LINE
  5
316
330
312
100
AcDbEntity
  8
0
  6
ByBlock
 62
     0
100
AcDbLine
 10
2190.760165
 20
1153.784975
 30
0.0
 11
2190.760165
 21
1202.171975
 31
0.0
  0
SOLID
  5
317
330
312
100
AcDbEntity
  8
0
  6
ByBlock
 62
     0
100
AcDbTrace
 10
2188.855165
 20
1103.925234
 30
0.0
 11
2192.665165
 21
1103.925234
 31
0.0
 12
2190.760165
 22
1115.355234
 32
0.0
 13
2190.760165
 23
1115.355234
 33
0.0
  0
SOLID
  5
318
330
312
100
AcDbEntity
  8
0
  6
ByBlock
 62
     0
100
AcDbTrace
 10
2188.855165
 20
1153.784975
 30
0.0
 11
2192.665165
 21
1153.784975
 31
0.0
 12
2190.760165
 22
1142.354975
 32
0.0
 13
2190.760165
 23
1142.354975
 33
0.0
  0
MTEXT
  5
319
330
312
100
AcDbEntity
  8
0
  6
ByBlock
 62
     0
100
AcDbMText
 10
2182.759165
 20
1183.693475
 30
0.0
 40
11.43
 41
0.0
 71
     5
 72
     1
  1
\A1;27.0
 11
0.0
 21
1.0
 31
0.0
 73
     1
 44
1.0
  0
POINT
  5
31A
330
312
100
AcDbEntity
  8
DEFPOINTS
  6
ByBlock
 62
     0
100
AcDbPoint
 10
2347.795972999999
 20
1115.355234
 30
0.0
  0
POINT
  5
31B
330
312
100
AcDbEntity
  8
DEFPOINTS
  6
ByBlock
 62
     0
100
AcDbPoint
 10
1950.120853
 20
1142.354975
 30
0.0
  0
POINT
  5
31C
330
312
100
AcDbEntity
  8
DEFPOINTS
  6
ByBlock
 62
     0
100
AcDbPoint
 10
2190.760165
 20
1142.354975
 30
0.0
  0
ENDBLK
  5
31E
330
312
100
AcDbEntity
  8
0
100
AcDbBlockEnd
  0
BLOCK
  5
325
330
31F
100
AcDbEntity
  8
0
100
AcDbBlockBegin
  2
*D37
 70
     1
 10
0.0
 20
0.0
 30
0.0
  3
*D37
  1

  0
LINE
  5
320
330
31F
100
AcDbEntity
  8
0
  6
ByBlock
 62
     0
100
AcDbLine
 10
1882.374258
 20
1036.530428999999
 30
0.0
 11
1798.120334
 21
933.1909199999996
 31
0.0
  0
MTEXT
  5
321
330
31F
100
AcDbEntity
  8
0
  6
ByBlock
 62
     0
100
AcDbMText
 10
1841.25969
 20
1009.840167
 30
0.0
 40
20.0
 41
0.0
 71
     5
 72
     1
  1
\A1;R110.9
 11
0.6319043262737729
 21
0.7750464001829113
 31
0.0
 73
     1
 44
1.0
  0
SOLID
  5
322
330
31F
100
AcDbEntity
  8
0
  6
ByBlock
 62
     0
100
AcDbTrace
 10
1808.174935
 20
950.798194
 30
0.0
 11
1813.34191
 21
946.5854980000001
 31
0.0
 12
1798.120334
 22
933.1909199999996
 32
0.0
 13
1798.120334
 23
933.1909199999996
 33
0.0
  0
POINT
  5
323
330
31F
100
AcDbEntity
  8
DEFPOINTS
  6
ByBlock
 62
     0
100
AcDbPoint
 10
1798.120334
 20
933.1909199999996
 30
0.0
  0
POINT
  5
324
330
31F
100
AcDbEntity
  8
DEFPOINTS
  6
ByBlock
 62
     0
100
AcDbPoint
 10
1868.198535
 20
1019.143556
 30
0.0
  0
ENDBLK
  5
326
330
31F
100
AcDbEntity
  8
0
100
AcDbBlockEnd
  0
BLOCK
  5
32D
330
327
100
AcDbEntity
  8
0
100
AcDbBlockBegin
  2
*D38
 70
     1
 10
0.0
 20
0.0
 30
0.0
  3
*D38
  1

  0
LINE
  5
328
330
327
100
AcDbEntity
  8
0
  6
ByBlock
 62
     0
100
AcDbLine
 10
2390.008524
 20
1026.590194
 30
0.0
 11
2481.404853999999
 21
934.1417719999999
 31
0.0
  0
MTEXT
  5
329
330
327
100
AcDbEntity
  8
0
  6
ByBlock
 62
     0
100
AcDbMText
 10
2432.312841
 20
1005.134548
 30
0.0
 40
20.0
 41
0.0
 71
     5
 72
     1
  1
\A1;R85.9
 11
0.7030487045209949
 21
-0.7111417011196509
 31
0.0
 73
     1
 44
1.0
  0
SOLID
  5
32A
330
327
100
AcDbEntity
  8
0
  6
ByBlock
 62
     0
100
AcDbTrace
 10
2469.714353
 20
950.7081020000001
 30
0.0
 11
2464.973408
 21
946.0211099999995
 31
0.0
 12
2481.404853999999
 22
934.1417719999999
 32
0.0
 13
2481.404853999999
 23
934.1417719999999
 33
0.0
  0
POINT
  5
32B
330
327
100
AcDbEntity
  8
DEFPOINTS
  6
ByBlock
 62
     0
100
AcDbPoint
 10
2481.404853999999
 20
934.1417719999999
 30
0.0
  0
POINT
  5
32C
330
327
100
AcDbEntity
  8
DEFPOINTS
  6
ByBlock
 62
     0
100
AcDbPoint
 10
2421.012971
 20
995.2288449999999
 30
0.0
  0
ENDBLK
  5
32E
330
327
100
AcDbEntity
  8
0
100
AcDbBlockEnd
  0
BLOCK
  5
34F
330
32F
100
AcDbEntity
  8
0
100
AcDbBlockBegin
  2
A$C667F107E
 70
     0
 10
0.0
 20
0.0
 30
0.0
  3
A$C667F107E
  1

  0
DIMENSION
  5
330
330
32F
100
AcDbEntity
  8
DIM
 62
     1
100
AcDbDimension
  2
*D33
 10
13.71599787998843
 20
153.2526149727002
 30
0.0
 11
5.714997879988459
 21
390.6526149727003
 31
0.0
 12
-1627.818405120011
 22
-751.7023600272996
 32
0.0
 70
    32
 71
     5
 42
-1.0
  3
B
100
AcDbAlignedDimension
 13
324.9868218799885
 23
628.0526149727003
 33
0.0
 14
324.9868218799885
 24
153.2526149727002
 34
0.0
 50
90.0
100
AcDbRotatedDimension
1001
ACAD
1000
DSTYLE
1002
{
1070
   279
1070
     1
1070
   289
1070
     3
1002
}
  0
ARC
  5
331
330
32F
100
AcDbEntity
  8
0
  6
Continuous
100
AcDbCircle
 10
-315.0224321200115
 20
366.3274839727002
 30
0.0
 40
1200.9
100
AcDbArc
 50
353.676878
 51
6.042982999999994
  0
ARC
  5
332
330
32F
100
AcDbEntity
  8
0
  6
Continuous
100
AcDbCircle
 10
1724.987315879988
 20
394.0962559727004
 30
0.0
 40
1600.9
100
AcDbArc
 50
175.391264
 51
184.8762199999999
  0
DIMENSION
  5
333
330
32F
100
AcDbEntity
  8
DIM
 62
     1
100
AcDbDimension
  2
*D34
 10
885.8739798799886
 20
7.620001972700379
 30
0.0
 11
504.9828288799885
 21
15.62100197270035
 31
0.0
 12
-1627.818405120011
 22
-751.7023600272996
 32
0.0
 70
    32
 71
     5
 42
-1.0
  3
B
100
AcDbAlignedDimension
 13
124.0916768799886
 23
390.3593769727003
 33
0.0
 14
885.8739798799886
 24
363.3916749727005
 34
0.0
100
AcDbRotatedDimension
1001
ACAD
1000
DSTYLE
1002
{
1070
   279
1070
     1
1070
   289
1070
     3
1002
}
  0
LINE
  5
334
330
32F
100
AcDbEntity
  8
CENTER
  6
CENTER2
100
AcDbLine
 10
324.9868218799885
 20
119.9260189727002
 30
0.0
 11
324.9868218799885
 21
690.0493439727004
 31
0.0
  0
LINE
  5
335
330
32F
100
AcDbEntity
  8
CENTER
  6
CENTER2
100
AcDbLine
 10
719.9775678799887
 20
77.21529297270035
 30
0.0
 11
719.9775678799887
 21
647.2668669727003
 31
0.0
  0
DIMENSION
  5
336
330
32F
100
AcDbEntity
  8
DIM
 62
     1
100
AcDbDimension
  2
*D32
 10
1058.937063879989
 20
153.2526149727002
 30
0.0
 11
1050.936063879988
 21
363.6528739727002
 31
0.0
 12
-1627.818405120011
 22
-751.7023600272996
 32
0.0
 70
    32
 71
     5
 42
-1.0
  3
B
100
AcDbAlignedDimension
 13
719.9775678799887
 23
574.0531329727001
 33
0.0
 14
719.9775678799887
 24
153.2526149727002
 34
0.0
 50
90.0
100
AcDbRotatedDimension
1001
ACAD
1000
DSTYLE
1002
{
1070
   279
1070
     1
1070
   289
1070
     3
1002
}
  0
MTEXT
  5
337
330
32F
100
AcDbEntity
  8
DIM
 62
     1
100
AcDbMText
 10
451.1789678799885
 20
299.0898359727005
 30
0.0
 40
50.0
 41
207.1696
 71
     1
 72
     5
  1
503
 73
     1
 44
1.0
  0
DIMENSION
  5
338
330
32F
100
AcDbEntity
  8
0
 62
     1
100
AcDbDimension
  2
*D35
 10
719.9775678799887
 20
85.00327197270042
 30
0.0
 11
522.4821948799886
 21
93.00427197270041
 31
0.0
 12
-1627.818405120011
 22
-751.7023600272996
 32
0.0
 70
    32
 71
     5
 42
-1.0
  3
B
100
AcDbAlignedDimension
 13
324.9868218799885
 23
119.9260189727002
 33
0.0
 14
719.9775678799887
 24
77.21529297270035
 34
0.0
100
AcDbRotatedDimension
  0
LINE
  5
339
330
32F
100
AcDbEntity
  8
0
100
AcDbLine
 10
324.9868218799885
 20
153.2526149727002
 30
0.0
 11
719.9775678799887
 21
153.2526149727002
 31
0.0
  0
ARC
  5
33A
330
32F
100
AcDbEntity
  8
0
  6
Continuous
100
AcDbCircle
 10
324.9868218799885
 20
1354.152614972699
 30
0.0
 40
1200.9
100
AcDbArc
 50
265.548177
 51
270.0
  0
ARC
  5
33B
330
32F
100
AcDbEntity
  8
0
  6
Continuous
100
AcDbCircle
 10
240.3801298799888
 20
267.4411959727005
 30
0.0
 40
110.8999999999999
100
AcDbArc
 50
184.8762199999999
 51
265.548177
  0
DIMENSION
  5
33C
330
32F
100
AcDbEntity
  8
DIM
100
AcDbDimension
  2
*D37
 10
240.3801298799888
 20
267.4411959727005
 30
0.0
 11
225.0669798799886
 21
248.6592409727002
 31
0.0
 12
-1627.818405120011
 22
-751.7023600272996
 32
0.0
 70
   164
 71
     5
 42
-1.0
  3
STANDARD
100
AcDbRadialDimension
 15
170.3019288799885
 25
181.4885599727001
 35
0.0
 40
0.0
1001
ACAD
1000
DSTYLE
1002
{
1070
    40
1040
8.0
1070
    41
1040
2.5
1070
    42
1040
0.625
1070
    43
1040
3.75
1070
    44
1040
1.25
1070
    73
1070
     0
1070
    74
1070
     0
1070
    77
1070
     1
1070
    78
1070
     8
1070
   140
1040
2.5
1070
   141
1040
0.0
1070
   143
1040
0.0394
1070
   147
1040
0.625
1070
   171
1070
     4
1070
   172
1070
     1
1070
   273
1070
     8
1070
   274
1070
     4
1070
   277
1070
     6
1070
   288
1070
     1
1002
}
  0
MTEXT
  5
33D
330
32F
100
AcDbEntity
  8
DIM
100
AcDbMText
 10
438.0150498799884
 20
216.1416749727004
 30
0.0
 40
30.0
 41
206.8926999999999
 71
     1
 72
     5
  1
\f\M+5CBCE\M+5CCE5|b0|i0|c134|p54;\M+5B6D4\M+5BAB8
 73
     1
 44
1.0
  0
DIMENSION
  5
33E
330
32F
100
AcDbEntity
  8
DIM
100
AcDbDimension
  2
*D38
 10
793.1945658799885
 20
243.5264849727003
 30
0.0
 11
793.8273098799882
 21
242.8864569727003
 31
0.0
 12
-1627.818405120011
 22
-751.7023600272996
 32
0.0
 70
   164
 71
     5
 42
-1.0
  3
STANDARD
100
AcDbRadialDimension
 15
853.5864488799884
 25
182.4394119727004
 35
0.0
 40
0.0
1001
ACAD
1000
DSTYLE
1002
{
1070
    40
1040
8.0
1070
    41
1040
2.5
1070
    42
1040
0.625
1070
    43
1040
3.75
1070
    44
1040
1.25
1070
    73
1070
     0
1070
    74
1070
     0
1070
    77
1070
     1
1070
    78
1070
     8
1070
   140
1040
2.5
1070
   141
1040
0.0
1070
   143
1040
0.0394
1070
   147
1040
0.625
1070
   171
1070
     4
1070
   172
1070
     1
1070
   273
1070
     8
1070
   274
1070
     4
1070
   277
1070
     6
1070
   288
1070
     1
1002
}
  0
ARC
  5
33F
330
32F
100
AcDbEntity
  8
0
  6
Continuous
100
AcDbCircle
 10
793.1945658799885
 20
243.5264849727003
 30
0.0
 40
85.90000000000001
100
AcDbArc
 50
276.837396
 51
353.676878
  0
ARC
  5
340
330
32F
100
AcDbEntity
  8
0
  6
Continuous
100
AcDbCircle
 10
719.9775678799887
 20
854.1526149727003
 30
0.0
 40
700.9
100
AcDbArc
 50
270.0
 51
276.837396
  0
LINE
  5
341
330
32F
100
AcDbEntity
  8
0
100
AcDbLine
 10
719.9775678799887
 20
574.0531329727001
 30
0.0
 11
518.3842848799886
 21
574.0531329727001
 31
0.0
  0
DIMENSION
  5
342
330
32F
100
AcDbEntity
  8
CENTER
  6
CENTER2
100
AcDbDimension
  2
*D36
 10
562.9417598799881
 20
390.6526149727003
 30
0.0
 11
554.9407598799882
 21
431.9911149727003
 31
0.0
 12
-1627.818405120011
 22
-751.7023600272996
 32
0.0
 70
    32
 71
     5
 42
-1.0
  3
B
100
AcDbAlignedDimension
 13
719.9775678799887
 23
363.6528739727002
 33
0.0
 14
322.3024478799886
 24
390.6526149727003
 34
0.0
 50
90.0
100
AcDbRotatedDimension
  0
ARC
  5
343
330
32F
100
AcDbEntity
  8
0
  6
Continuous
100
AcDbCircle
 10
239.8050238799886
 20
513.8191059727001
 30
0.0
 40
110.8999999999999
100
AcDbArc
 50
94.482146
 51
175.391264
  0
ARC
  5
344
330
32F
100
AcDbEntity
  8
0
  6
Continuous
100
AcDbCircle
 10
324.9868218799885
 20
-572.8473850272997
 30
0.0
 40
1200.9
100
AcDbArc
 50
85.51785399999998
 51
94.482146
  0
LINE
  5
345
330
32F
100
AcDbEntity
  8
CENTER
  6
CENTER2
100
AcDbLine
 10
104.6272938799883
 20
390.6526149727003
 30
0.0
 11
539.9776028799883
 21
390.6526149727003
 31
0.0
  0
DIMENSION
  5
346
330
32F
100
AcDbEntity
  8
DIM
100
AcDbDimension
  2
*D28
 10
239.8050238799886
 20
513.8191059727001
 30
0.0
 11
222.8378578799884
 21
531.1214089727002
 31
0.0
 12
-1627.818405120011
 22
-751.7023600272996
 32
0.0
 70
   164
 71
     5
 42
-1.0
  3
STANDARD
100
AcDbRadialDimension
 15
162.1574828799885
 25
593.0003489727003
 35
0.0
 40
0.0
1001
ACAD
1000
DSTYLE
1002
{
1070
    40
1040
8.0
1070
    41
1040
2.5
1070
    42
1040
0.625
1070
    43
1040
3.75
1070
    44
1040
1.25
1070
    73
1070
     0
1070
    74
1070
     0
1070
    77
1070
     1
1070
    78
1070
     8
1070
   140
1040
2.5
1070
   141
1040
0.0
1070
   143
1040
0.0394
1070
   147
1040
0.625
1070
   171
1070
     4
1070
   172
1070
     1
1070
   273
1070
     8
1070
   274
1070
     4
1070
   277
1070
     6
1070
   288
1070
     1
1002
}
  0
ARC
  5
347
330
32F
100
AcDbEntity
  8
0
100
AcDbCircle
 10
410.1686188799883
 20
513.8191059727001
 30
0.0
 40
110.8999999999999
100
AcDbArc
 50
39.82253599999999
 51
85.51785399999998
  0
DIMENSION
  5
348
330
32F
100
AcDbEntity
  8
DIM
100
AcDbDimension
  2
*D29
 10
410.1686188799883
 20
513.8191059727001
 30
0.0
 11
423.2656568799884
 21
534.2083689727003
 31
0.0
 12
-1627.818405120011
 22
-751.7023600272996
 32
0.0
 70
   164
 71
     5
 42
-1.0
  3
STANDARD
100
AcDbRadialDimension
 15
470.1051298799888
 25
607.1273299727002
 35
0.0
 40
0.0
1001
ACAD
1000
DSTYLE
1002
{
1070
    40
1040
8.0
1070
    41
1040
2.5
1070
    42
1040
0.625
1070
    43
1040
3.75
1070
    44
1040
1.25
1070
    73
1070
     0
1070
    74
1070
     0
1070
    77
1070
     1
1070
    78
1070
     8
1070
   140
1040
2.5
1070
   141
1040
0.0
1070
   143
1040
0.0394
1070
   147
1040
0.625
1070
   171
1070
     4
1070
   172
1070
     1
1070
   273
1070
     8
1070
   274
1070
     4
1070
   277
1070
     6
1070
   288
1070
     1
1002
}
  0
DIMENSION
  5
349
330
32F
100
AcDbEntity
  8
DIM
100
AcDbDimension
  2
*D30
 10
518.3842848799886
 20
604.0531329727001
 30
0.0
 11
481.1362148799885
 21
511.2491389727003
 31
0.0
 12
-1627.818405120011
 22
-751.7023600272996
 32
0.0
 70
   164
 71
     5
 42
-1.0
  3
STANDARD
100
AcDbRadialDimension
 15
507.2098638799884
 25
576.2119349727003
 35
0.0
 40
0.0
1001
ACAD
1000
DSTYLE
1002
{
1070
    40
1040
8.0
1070
    41
1040
2.5
1070
    42
1040
0.625
1070
    43
1040
3.75
1070
    44
1040
1.25
1070
    73
1070
     0
1070
    74
1070
     0
1070
    77
1070
     1
1070
    78
1070
     8
1070
   140
1040
2.5
1070
   141
1040
0.0
1070
   143
1040
0.0394
1070
   147
1040
0.625
1070
   171
1070
     4
1070
   172
1070
     1
1070
   273
1070
     8
1070
   274
1070
     4
1070
   277
1070
     6
1070
   288
1070
     1
1002
}
  0
ARC
  5
34A
330
32F
100
AcDbEntity
  8
0
100
AcDbCircle
 10
518.3842848799886
 20
604.0531329727001
 30
0.0
 40
30.0
100
AcDbArc
 50
219.822536
 51
270.0
  0
LINE
  5
34B
330
32F
100
AcDbEntity
  8
CENTER
  6
CENTER2
100
AcDbLine
 10
610.0353338799886
 20
363.6528739727002
 30
0.0
 11
1019.548400879987
 21
363.6528739727002
 31
0.0
  0
ARC
  5
34C
330
32F
100
AcDbEntity
  8
0
  6
Continuous
100
AcDbCircle
 10
793.7817348799884
 20
483.7085729727005
 30
0.0
 40
85.90000000000001
100
AcDbArc
 50
6.042983000000001
 51
83.107506
  0
DIMENSION
  5
34D
330
32F
100
AcDbEntity
  8
DIM
100
AcDbDimension
  2
*D31
 10
793.7817348799884
 20
483.7085729727005
 30
0.0
 11
794.3822698799886
 21
484.3789149727002
 31
0.0
 12
-1627.818405120011
 22
-751.7023600272996
 32
0.0
 70
   164
 71
     5
 42
-1.0
  3
STANDARD
100
AcDbRadialDimension
 15
851.0994198799885
 25
547.6889839727
 35
0.0
 40
0.0
1001
ACAD
1000
DSTYLE
1002
{
1070
    40
1040
8.0
1070
    41
1040
2.5
1070
    42
1040
0.625
1070
    43
1040
3.75
1070
    44
1040
1.25
1070
    73
1070
     0
1070
    74
1070
     0
1070
    77
1070
     1
1070
    78
1070
     8
1070
   140
1040
2.5
1070
   141
1040
0.0
1070
   143
1040
0.0394
1070
   147
1040
0.625
1070
   171
1070
     4
1070
   172
1070
     1
1070
   273
1070
     8
1070
   274
1070
     4
1070
   277
1070
     6
1070
   288
1070
     1
1002
}
  0
ARC
  5
34E
330
32F
100
AcDbEntity
  8
0
100
AcDbCircle
 10
719.9775678799887
 20
-126.8468670272995
 30
0.0
 40
700.9
100
AcDbArc
 50
83.107506
 51
90.0
  0
ENDBLK
  5
350
330
32F
100
AcDbEntity
  8
0
100
AcDbBlockEnd
  0
BLOCK
  5
35D
330
353
100
AcDbEntity
  8
0
100
AcDbBlockBegin
  2
*D40
 70
     1
 10
0.0
 20
0.0
 30
0.0
  3
*D40
  1

  0
LINE
  5
354
330
353
100
AcDbEntity
  8
0
  6
ByBlock
 62
     0
100
AcDbLine
 10
989.9334449999999
 20
440.396411
 30
0.0
 11
989.9334449999999
 21
447.413868
 31
0.0
  0
LINE
  5
355
330
353
100
AcDbEntity
  8
0
  6
ByBlock
 62
     0
100
AcDbLine
 10
1376.046335
 20
440.396411
 30
0.0
 11
1376.046335
 21
447.413868
 31
0.0
  0
LINE
  5
356
330
353
100
AcDbEntity
  8
0
  6
ByBlock
 62
     0
100
AcDbLine
 10
1005.173445
 20
435.983868
 30
0.0
 11
1360.806335
 21
435.983868
 31
0.0
  0
SOLID
  5
357
330
353
100
AcDbEntity
  8
0
  6
ByBlock
 62
     0
100
AcDbTrace
 10
1005.173445
 20
438.5238679999998
 30
0.0
 11
1005.173445
 21
433.4438679999998
 31
0.0
 12
989.9334449999999
 22
435.983868
 32
0.0
 13
989.9334449999999
 23
435.983868
 33
0.0
  0
SOLID
  5
358
330
353
100
AcDbEntity
  8
0
  6
ByBlock
 62
     0
100
AcDbTrace
 10
1360.806335
 20
438.5238679999998
 30
0.0
 11
1360.806335
 21
433.4438679999998
 31
0.0
 12
1376.046335
 22
435.983868
 32
0.0
 13
1376.046335
 23
435.983868
 33
0.0
  0
MTEXT
  5
359
330
353
100
AcDbEntity
  8
0
  6
ByBlock
 62
     0
100
AcDbMText
 10
1182.98989
 20
447.7948679999998
 30
0.0
 40
14.47799999999999
 41
0.0
 71
     5
 72
     1
  1
\A1;386.1
 73
     1
 44
1.0
  0
POINT
  5
35A
330
353
100
AcDbEntity
  8
DEFPOINTS
  6
ByBlock
 62
     0
100
AcDbPoint
 10
989.9334449999999
 20
434.3004109999999
 30
0.0
  0
POINT
  5
35B
330
353
100
AcDbEntity
  8
DEFPOINTS
  6
ByBlock
 62
     0
100
AcDbPoint
 10
1376.046335
 20
434.3004109999999
 30
0.0
  0
POINT
  5
35C
330
353
100
AcDbEntity
  8
DEFPOINTS
  6
ByBlock
 62
     0
100
AcDbPoint
 10
1376.046335
 20
435.983868
 30
0.0
  0
ENDBLK
  5
35E
330
353
100
AcDbEntity
  8
0
100
AcDbBlockEnd
  0
BLOCK
  5
36A
330
35F
100
AcDbEntity
  8
0
100
AcDbBlockBegin
  2
*D41
 70
     1
 10
0.0
 20
0.0
 30
0.0
  3
*D41
  1

  0
LINE
  5
360
330
35F
100
AcDbEntity
  8
0
  6
ByBlock
 62
     0
100
AcDbLine
 10
1314.875407
 20
682.319487
 30
0.0
 11
1280.532774999999
 21
682.319487
 31
0.0
  0
LINE
  5
361
330
35F
100
AcDbEntity
  8
0
  6
ByBlock
 62
     0
100
AcDbLine
 10
1314.875407
 20
715.3723339999998
 30
0.0
 11
1280.532774999999
 21
715.3723339999998
 31
0.0
  0
LINE
  5
362
330
35F
100
AcDbEntity
  8
0
  6
ByBlock
 62
     0
100
AcDbLine
 10
1291.962775
 20
667.0794869999999
 30
0.0
 11
1291.962775
 21
651.8394869999998
 31
0.0
  0
LINE
  5
363
330
35F
100
AcDbEntity
  8
0
  6
ByBlock
 62
     0
100
AcDbLine
 10
1291.962775
 20
730.612334
 30
0.0
 11
1291.962775
 21
793.604334
 31
0.0
  0
SOLID
  5
364
330
35F
100
AcDbEntity
  8
0
  6
ByBlock
 62
     0
100
AcDbTrace
 10
1289.422775
 20
667.0794869999999
 30
0.0
 11
1294.502774999999
 21
667.0794869999999
 31
0.0
 12
1291.962775
 22
682.319487
 32
0.0
 13
1291.962775
 23
682.319487
 33
0.0
  0
SOLID
  5
365
330
35F
100
AcDbEntity
  8
0
  6
ByBlock
 62
     0
100
AcDbTrace
 10
1289.422775
 20
730.612334
 30
0.0
 11
1294.502774999999
 21
730.612334
 31
0.0
 12
1291.962775
 22
715.3723339999998
 32
0.0
 13
1291.962775
 23
715.3723339999998
 33
0.0
  0
MTEXT
  5
366
330
35F
100
AcDbEntity
  8
0
  6
ByBlock
 62
     0
100
AcDbMText
 10
1280.151775
 20
769.728334
 30
0.0
 40
14.47799999999999
 41
0.0
 71
     5
 72
     1
  1
\A1;33.1
 11
0.0
 21
1.0
 31
0.0
 73
     1
 44
1.0
  0
POINT
  5
367
330
35F
100
AcDbEntity
  8
DEFPOINTS
  6
ByBlock
 62
     0
100
AcDbPoint
 10
1320.971407
 20
682.319487
 30
0.0
  0
POINT
  5
368
330
35F
100
AcDbEntity
  8
DEFPOINTS
  6
ByBlock
 62
     0
100
AcDbPoint
 10
1320.971407
 20
715.3723339999998
 30
0.0
  0
POINT
  5
369
330
35F
100
AcDbEntity
  8
DEFPOINTS
  6
ByBlock
 62
     0
100
AcDbPoint
 10
1291.962775
 20
715.3723339999998
 30
0.0
  0
ENDBLK
  5
36B
330
35F
100
AcDbEntity
  8
0
100
AcDbBlockEnd
  0
BLOCK
  5
376
330
36C
100
AcDbEntity
  8
0
100
AcDbBlockBegin
  2
*D42
 70
     1
 10
0.0
 20
0.0
 30
0.0
  3
*D42
  1

  0
LINE
  5
36D
330
36C
100
AcDbEntity
  8
0
  6
ByBlock
 62
     0
100
AcDbLine
 10
763.528395
 20
659.276334
 30
0.0
 11
763.528395
 21
376.056571
 31
0.0
  0
LINE
  5
36E
330
36C
100
AcDbEntity
  8
0
  6
ByBlock
 62
     0
100
AcDbLine
 10
1508.528304
 20
676.223487
 30
0.0
 11
1508.528304
 21
376.056571
 31
0.0
  0
LINE
  5
36F
330
36C
100
AcDbEntity
  8
0
  6
ByBlock
 62
     0
100
AcDbLine
 10
778.768395
 20
387.486571
 30
0.0
 11
1493.288304
 21
387.486571
 31
0.0
  0
SOLID
  5
370
330
36C
100
AcDbEntity
  8
0
  6
ByBlock
 62
     0
100
AcDbTrace
 10
778.768395
 20
390.0265709999999
 30
0.0
 11
778.768395
 21
384.946571
 31
0.0
 12
763.528395
 22
387.486571
 32
0.0
 13
763.528395
 23
387.486571
 33
0.0
  0
SOLID
  5
371
330
36C
100
AcDbEntity
  8
0
  6
ByBlock
 62
     0
100
AcDbTrace
 10
1493.288304
 20
390.0265709999999
 30
0.0
 11
1493.288304
 21
384.946571
 31
0.0
 12
1508.528304
 22
387.486571
 32
0.0
 13
1508.528304
 23
387.486571
 33
0.0
  0
MTEXT
  5
372
330
36C
100
AcDbEntity
  8
0
  6
ByBlock
 62
     0
100
AcDbMText
 10
1136.02835
 20
399.616578
 30
0.0
 40
14.47799999999999
 41
0.0
 71
     5
 72
     1
  1
\A1;745.0
 73
     1
 44
1.0
  0
POINT
  5
373
330
36C
100
AcDbEntity
  8
DEFPOINTS
  6
ByBlock
 62
     0
100
AcDbPoint
 10
763.528395
 20
665.3723339999998
 30
0.0
  0
POINT
  5
374
330
36C
100
AcDbEntity
  8
DEFPOINTS
  6
ByBlock
 62
     0
100
AcDbPoint
 10
1508.528304
 20
682.319487
 30
0.0
  0
POINT
  5
375
330
36C
100
AcDbEntity
  8
DEFPOINTS
  6
ByBlock
 62
     0
100
AcDbPoint
 10
1508.528304
 20
387.486571
 30
0.0
  0
ENDBLK
  5
377
330
36C
100
AcDbEntity
  8
0
100
AcDbBlockEnd
  0
BLOCK
  5
382
330
378
100
AcDbEntity
  8
0
100
AcDbBlockBegin
  2
*D43
 70
     1
 10
0.0
 20
0.0
 30
0.0
  3
*D43
  1

  0
LINE
  5
379
330
378
100
AcDbEntity
  8
0
  6
ByBlock
 62
     0
100
AcDbLine
 10
1382.124395
 20
884.4156100000001
 30
0.0
 11
1617.945089
 21
884.4156100000001
 31
0.0
  0
LINE
  5
37A
330
378
100
AcDbEntity
  8
0
  6
ByBlock
 62
     0
100
AcDbLine
 10
1382.181078
 20
480.425003
 30
0.0
 11
1617.945089
 21
480.425003
 31
0.0
  0
LINE
  5
37B
330
378
100
AcDbEntity
  8
0
  6
ByBlock
 62
     0
100
AcDbLine
 10
1606.515089
 20
869.17561
 30
0.0
 11
1606.515089
 21
495.665003
 31
0.0
  0
SOLID
  5
37C
330
378
100
AcDbEntity
  8
0
  6
ByBlock
 62
     0
100
AcDbTrace
 10
1603.975089
 20
869.17561
 30
0.0
 11
1609.055089
 21
869.17561
 31
0.0
 12
1606.515089
 22
884.4156100000001
 32
0.0
 13
1606.515089
 23
884.4156100000001
 33
0.0
  0
SOLID
  5
37D
330
378
100
AcDbEntity
  8
0
  6
ByBlock
 62
     0
100
AcDbTrace
 10
1603.975089
 20
495.665003
 30
0.0
 11
1609.055089
 21
495.665003
 31
0.0
 12
1606.515089
 22
480.425003
 32
0.0
 13
1606.515089
 23
480.425003
 33
0.0
  0
MTEXT
  5
37E
330
378
100
AcDbEntity
  8
0
  6
ByBlock
 62
     0
100
AcDbMText
 10
1594.385082
 20
682.420306
 30
0.0
 40
14.47799999999999
 41
0.0
 71
     5
 72
     1
  1
\A1;404.0
 11
0.0
 21
1.0
 31
0.0
 73
     1
 44
1.0
  0
POINT
  5
37F
330
378
100
AcDbEntity
  8
DEFPOINTS
  6
ByBlock
 62
     0
100
AcDbPoint
 10
1376.028395
 20
884.4156100000001
 30
0.0
  0
POINT
  5
380
330
378
100
AcDbEntity
  8
DEFPOINTS
  6
ByBlock
 62
     0
100
AcDbPoint
 10
1376.085078
 20
480.425003
 30
0.0
  0
POINT
  5
381
330
378
100
AcDbEntity
  8
DEFPOINTS
  6
ByBlock
 62
     0
100
AcDbPoint
 10
1606.515089
 20
480.425003
 30
0.0
  0
ENDBLK
  5
383
330
378
100
AcDbEntity
  8
0
100
AcDbBlockEnd
  0
BLOCK
  5
38E
330
384
100
AcDbEntity
  8
0
100
AcDbBlockBegin
  2
*D44
 70
     1
 10
0.0
 20
0.0
 30
0.0
  3
*D44
  1

  0
LINE
  5
385
330
384
100
AcDbEntity
  8
0
  6
ByBlock
 62
     0
100
AcDbLine
 10
982.432395
 20
950.3757919999999
 30
0.0
 11
663.837344
 21
950.3757919999999
 31
0.0
  0
LINE
  5
386
330
384
100
AcDbEntity
  8
0
  6
ByBlock
 62
     0
100
AcDbLine
 10
982.432395
 20
480.370625
 30
0.0
 11
663.837344
 21
480.370625
 31
0.0
  0
LINE
  5
387
330
384
100
AcDbEntity
  8
0
  6
ByBlock
 62
     0
100
AcDbLine
 10
675.2673440000002
 20
935.1357919999999
 30
0.0
 11
675.2673440000002
 21
495.610625
 31
0.0
  0
SOLID
  5
388
330
384
100
AcDbEntity
  8
0
  6
ByBlock
 62
     0
100
AcDbTrace
 10
672.727344
 20
935.1357919999999
 30
0.0
 11
677.807344
 21
935.1357919999999
 31
0.0
 12
675.2673440000002
 22
950.3757919999999
 32
0.0
 13
675.2673440000002
 23
950.3757919999999
 33
0.0
  0
SOLID
  5
389
330
384
100
AcDbEntity
  8
0
  6
ByBlock
 62
     0
100
AcDbTrace
 10
672.727344
 20
495.610625
 30
0.0
 11
677.807344
 21
495.610625
 31
0.0
 12
675.2673440000002
 22
480.370625
 32
0.0
 13
675.2673440000002
 23
480.370625
 33
0.0
  0
MTEXT
  5
38A
330
384
100
AcDbEntity
  8
0
  6
ByBlock
 62
     0
100
AcDbMText
 10
663.137337
 20
715.373208
 30
0.0
 40
14.47799999999999
 41
0.0
 71
     5
 72
     1
  1
\A1;470.0
 11
0.0
 21
1.0
 31
0.0
 73
     1
 44
1.0
  0
POINT
  5
38B
330
384
100
AcDbEntity
  8
DEFPOINTS
  6
ByBlock
 62
     0
100
AcDbPoint
 10
988.5283949999999
 20
950.3757919999999
 30
0.0
  0
POINT
  5
38C
330
384
100
AcDbEntity
  8
DEFPOINTS
  6
ByBlock
 62
     0
100
AcDbPoint
 10
988.5283949999999
 20
480.370625
 30
0.0
  0
POINT
  5
38D
330
384
100
AcDbEntity
  8
DEFPOINTS
  6
ByBlock
 62
     0
100
AcDbPoint
 10
675.2673440000002
 20
480.370625
 30
0.0
  0
ENDBLK
  5
38F
330
384
100
AcDbEntity
  8
0
100
AcDbBlockEnd
  0
BLOCK
  5
396
330
390
100
AcDbEntity
  8
0
100
AcDbBlockBegin
  2
*D45
 70
     1
 10
0.0
 20
0.0
 30
0.0
  3
*D45
  1

  0
LINE
  5
391
330
390
100
AcDbEntity
  8
0
  6
ByBlock
 62
     0
100
AcDbLine
 10
889.969274
 20
832.6195420000001
 30
0.0
 11
835.1967229999996
 21
919.493317
 31
0.0
  0
MTEXT
  5
392
330
390
100
AcDbEntity
  8
0
  6
ByBlock
 62
     0
100
AcDbMText
 10
880.834815
 20
869.547741
 30
0.0
 40
14.47799999999999
 41
0.0
 71
     5
 72
     1
  1
\A1;R150.0
 11
0.5333308378114503
 21
-0.8459067427555691
 31
0.0
 73
     1
 44
1.0
  0
SOLID
  5
393
330
390
100
AcDbEntity
  8
0
  6
ByBlock
 62
     0
100
AcDbTrace
 10
845.473289
 20
907.9563590000001
 30
0.0
 11
841.176083
 21
905.247038
 31
0.0
 12
835.1967229999996
 22
919.493317
 32
0.0
 13
835.1967229999996
 23
919.493317
 33
0.0
  0
POINT
  5
394
330
390
100
AcDbEntity
  8
DEFPOINTS
  6
ByBlock
 62
     0
100
AcDbPoint
 10
835.1967229999996
 20
919.493317
 30
0.0
  0
POINT
  5
395
330
390
100
AcDbEntity
  8
DEFPOINTS
  6
ByBlock
 62
     0
100
AcDbPoint
 10
915.1963570000001
 20
792.6073099999999
 30
0.0
  0
ENDBLK
  5
397
330
390
100
AcDbEntity
  8
0
100
AcDbBlockEnd
  0
BLOCK
  5
39E
330
398
100
AcDbEntity
  8
0
100
AcDbBlockBegin
  2
*D46
 70
     1
 10
0.0
 20
0.0
 30
0.0
  3
*D46
  1

  0
LINE
  5
399
330
398
100
AcDbEntity
  8
0
  6
ByBlock
 62
     0
100
AcDbLine
 10
881.2083220000001
 20
734.8128769999998
 30
0.0
 11
764.0333389999998
 21
736.4782809999998
 31
0.0
  0
MTEXT
  5
39A
330
398
100
AcDbEntity
  8
0
  6
ByBlock
 62
     0
100
AcDbMText
 10
838.0293759999997
 20
747.395837
 30
0.0
 40
14.47799999999999
 41
0.0
 71
     5
 72
     1
  1
\A1;R5000.0
 11
0.9998990044270529
 21
-0.0142120000629236
 31
0.0
 73
     1
 44
1.0
  0
SOLID
  5
39B
330
398
100
AcDbEntity
  8
0
  6
ByBlock
 62
     0
100
AcDbTrace
 10
779.307897
 20
738.8014410000002
 30
0.0
 11
779.2357029999999
 21
733.7219539999997
 31
0.0
 12
764.0333389999998
 22
736.4782809999998
 32
0.0
 13
764.0333389999998
 23
736.4782809999998
 33
0.0
  0
POINT
  5
39C
330
398
100
AcDbEntity
  8
DEFPOINTS
  6
ByBlock
 62
     0
100
AcDbPoint
 10
764.0333389999998
 20
736.4782809999998
 30
0.0
  0
POINT
  5
39D
330
398
100
AcDbEntity
  8
DEFPOINTS
  6
ByBlock
 62
     0
100
AcDbPoint
 10
5763.528395
 20
665.4206249999997
 30
0.0
  0
ENDBLK
  5
39F
330
398
100
AcDbEntity
  8
0
100
AcDbBlockEnd
  0
BLOCK
  5
3A6
330
3A0
100
AcDbEntity
  8
0
100
AcDbBlockBegin
  2
*D47
 70
     1
 10
0.0
 20
0.0
 30
0.0
  3
*D47
  1

  0
LINE
  5
3A1
330
3A0
100
AcDbEntity
  8
0
  6
ByBlock
 62
     0
100
AcDbLine
 10
856.514836
 20
574.399937
 30
0.0
 11
792.208063
 21
507.160321
 31
0.0
  0
MTEXT
  5
3A2
330
3A0
100
AcDbEntity
  8
0
  6
ByBlock
 62
     0
100
AcDbMText
 10
826.2456639999998
 20
560.065915
 30
0.0
 40
14.47799999999999
 41
0.0
 71
     5
 72
     1
  1
\A1;R90.0
 11
0.6911701051394222
 21
0.7226921099344869
 31
0.0
 73
     1
 44
1.0
  0
SOLID
  5
3A3
330
3A0
100
AcDbEntity
  8
0
  6
ByBlock
 62
     0
100
AcDbTrace
 10
800.905855
 20
519.9297229999999
 30
0.0
 11
804.577132
 21
516.418579
 31
0.0
 12
792.208063
 22
507.160321
 32
0.0
 13
792.208063
 23
507.160321
 33
0.0
  0
POINT
  5
3A4
330
3A0
100
AcDbEntity
  8
DEFPOINTS
  6
ByBlock
 62
     0
100
AcDbPoint
 10
792.208063
 20
507.160321
 30
0.0
  0
POINT
  5
3A5
330
3A0
100
AcDbEntity
  8
DEFPOINTS
  6
ByBlock
 62
     0
100
AcDbPoint
 10
854.4133619999994
 20
572.202621
 30
0.0
  0
ENDBLK
  5
3A7
330
3A0
100
AcDbEntity
  8
0
100
AcDbBlockEnd
  0
BLOCK
  5
3AE
330
3A8
100
AcDbEntity
  8
0
100
AcDbBlockBegin
  2
*D48
 70
     1
 10
0.0
 20
0.0
 30
0.0
  3
*D48
  1

  0
LINE
  5
3A9
330
3A8
100
AcDbEntity
  8
0
  6
ByBlock
 62
     0
100
AcDbLine
 10
1030.67867
 20
843.006143
 30
0.0
 11
1041.898527999999
 21
947.5192609999997
 31
0.0
  0
MTEXT
  5
3AA
330
3A8
100
AcDbEntity
  8
0
  6
ByBlock
 62
     0
100
AcDbMText
 10
1022.762202
 20
881.387242
 30
0.0
 40
14.47799999999999
 41
0.0
 71
     5
 72
     1
  1
\A1;R500.0
 11
0.1067399964792346
 21
0.9942869672039421
 31
0.0
 73
     1
 44
1.0
  0
SOLID
  5
3AB
330
3A8
100
AcDbEntity
  8
0
  6
ByBlock
 62
     0
100
AcDbTrace
 10
1037.746317
 20
932.637448
 30
0.0
 11
1042.797295
 21
932.095207
 31
0.0
 12
1041.898527999999
 22
947.5192609999997
 32
0.0
 13
1041.898527999999
 23
947.5192609999997
 33
0.0
  0
POINT
  5
3AC
330
3A8
100
AcDbEntity
  8
DEFPOINTS
  6
ByBlock
 62
     0
100
AcDbPoint
 10
1041.898527999999
 20
947.5192609999997
 30
0.0
  0
POINT
  5
3AD
330
3A8
100
AcDbEntity
  8
DEFPOINTS
  6
ByBlock
 62
     0
100
AcDbPoint
 10
988.5283949999999
 20
450.3757919999998
 30
0.0
  0
ENDBLK
  5
3AF
330
3A8
100
AcDbEntity
  8
0
100
AcDbBlockEnd
  0
BLOCK
  5
3B8
330
3B0
100
AcDbEntity
  8
0
100
AcDbBlockBegin
  2
*D49
 70
     1
 10
0.0
 20
0.0
 30
0.0
  3
*D49
  1

  0
LINE
  5
3B1
330
3B0
100
AcDbEntity
  8
0
  6
ByBlock
 62
     0
100
AcDbLine
 10
1126.124444
 20
812.0463629999997
 30
0.0
 11
1177.741493
 21
889.4557109999999
 31
0.0
  0
MTEXT
  5
3B2
330
3B0
100
AcDbEntity
  8
0
  6
ByBlock
 62
     0
100
AcDbMText
 10
1133.520733999999
 20
844.7110509999998
 30
0.0
 40
14.47799999999999
 41
0.0
 71
     5
 72
     1
  1
\A1;R30.0
 11
0.5547807320492931
 21
0.83199659815822
 31
0.0
 73
     1
 44
1.0
  0
SOLID
  5
3B3
330
3B0
100
AcDbEntity
  8
0
  6
ByBlock
 62
     0
100
AcDbTrace
 10
1167.173364
 20
878.185225
 30
0.0
 11
1171.399907
 21
875.366939
 31
0.0
 12
1177.741493
 22
889.4557109999999
 32
0.0
 13
1177.741493
 23
889.4557109999999
 33
0.0
  0
LINE
  5
3B4
330
3B0
100
AcDbEntity
  8
0
  6
ByBlock
 62
     0
100
AcDbLine
 10
1193.622914
 20
914.41561
 30
0.0
 11
1195.146913999999
 21
914.41561
 31
0.0
  0
LINE
  5
3B5
330
3B0
100
AcDbEntity
  8
0
  6
ByBlock
 62
     0
100
AcDbLine
 10
1194.384914
 20
913.6536099999997
 30
0.0
 11
1194.384914
 21
915.1776099999999
 31
0.0
  0
POINT
  5
3B6
330
3B0
100
AcDbEntity
  8
DEFPOINTS
  6
ByBlock
 62
     0
100
AcDbPoint
 10
1177.741493
 20
889.4557109999999
 30
0.0
  0
POINT
  5
3B7
330
3B0
100
AcDbEntity
  8
DEFPOINTS
  6
ByBlock
 62
     0
100
AcDbPoint
 10
1194.384914
 20
914.41561
 30
0.0
  0
ENDBLK
  5
3B9
330
3B0
100
AcDbEntity
  8
0
100
AcDbBlockEnd
  0
BLOCK
  5
3C0
330
3BA
100
AcDbEntity
  8
0
100
AcDbBlockBegin
  2
*D50
 70
     1
 10
0.0
 20
0.0
 30
0.0
  3
*D50
  1

  0
LINE
  5
3BB
330
3BA
100
AcDbEntity
  8
0
  6
ByBlock
 62
     0
100
AcDbLine
 10
1413.8169
 20
796.0346209999999
 30
0.0
 11
1491.907356
 21
846.6153249999999
 31
0.0
  0
MTEXT
  5
3BC
330
3BA
100
AcDbEntity
  8
0
  6
ByBlock
 62
     0
100
AcDbMText
 10
1433.564599
 20
823.0848579999998
 30
0.0
 40
14.47799999999999
 41
0.0
 71
     5
 72
     1
  1
\A1;R80.0
 11
0.8393171466064764
 21
0.5436420949598758
 31
0.0
 73
     1
 44
1.0
  0
SOLID
  5
3BD
330
3BA
100
AcDbEntity
  8
0
  6
ByBlock
 62
     0
100
AcDbTrace
 10
1477.735310999999
 20
840.4620859999999
 30
0.0
 11
1480.497013
 21
836.1983549999999
 31
0.0
 12
1491.907356
 22
846.6153249999999
 32
0.0
 13
1491.907356
 23
846.6153249999999
 33
0.0
  0
POINT
  5
3BE
330
3BA
100
AcDbEntity
  8
DEFPOINTS
  6
ByBlock
 62
     0
100
AcDbPoint
 10
1491.907356
 20
846.6153249999999
 30
0.0
  0
POINT
  5
3BF
330
3BA
100
AcDbEntity
  8
DEFPOINTS
  6
ByBlock
 62
     0
100
AcDbPoint
 10
1424.761981
 20
803.1239629999998
 30
0.0
  0
ENDBLK
  5
3C1
330
3BA
100
AcDbEntity
  8
0
100
AcDbBlockEnd
  0
BLOCK
  5
3C8
330
3C2
100
AcDbEntity
  8
0
100
AcDbBlockBegin
  2
*D51
 70
     1
 10
0.0
 20
0.0
 30
0.0
  3
*D51
  1

  0
LINE
  5
3C3
330
3C2
100
AcDbEntity
  8
0
  6
ByBlock
 62
     0
100
AcDbLine
 10
1390.621331
 20
734.994217
 30
0.0
 11
1507.76332
 21
738.2352919999998
 31
0.0
  0
MTEXT
  5
3C4
330
3C2
100
AcDbEntity
  8
0
  6
ByBlock
 62
     0
100
AcDbMText
 10
1433.627151
 20
748.156728
 30
0.0
 40
14.47799999999999
 41
0.0
 71
     5
 72
     1
  1
\A1;R2000.0
 11
0.9996174716506226
 21
0.0276570130494392
 31
0.0
 73
     1
 44
1.0
  0
SOLID
  5
3C5
330
3C2
100
AcDbEntity
  8
0
  6
ByBlock
 62
     0
100
AcDbTrace
 10
1492.4589
 20
740.3528229999999
 30
0.0
 11
1492.5994
 21
735.274766
 31
0.0
 12
1507.76332
 22
738.2352919999998
 32
0.0
 13
1507.76332
 23
738.2352919999998
 33
0.0
  0
POINT
  5
3C6
330
3C2
100
AcDbEntity
  8
DEFPOINTS
  6
ByBlock
 62
     0
100
AcDbPoint
 10
1507.76332
 20
738.2352919999998
 30
0.0
  0
POINT
  5
3C7
330
3C2
100
AcDbEntity
  8
DEFPOINTS
  6
ByBlock
 62
     0
100
AcDbPoint
 10
-491.471605
 20
682.9206249999997
 30
0.0
  0
ENDBLK
  5
3C9
330
3C2
100
AcDbEntity
  8
0
100
AcDbBlockEnd
  0
BLOCK
  5
3D0
330
3CA
100
AcDbEntity
  8
0
100
AcDbBlockBegin
  2
*D52
 70
     1
 10
0.0
 20
0.0
 30
0.0
  3
*D52
  1

  0
LINE
  5
3CB
330
3CA
100
AcDbEntity
  8
0
  6
ByBlock
 62
     0
100
AcDbLine
 10
1412.520035
 20
566.352498
 30
0.0
 11
1499.484791
 21
533.281998
 31
0.0
  0
MTEXT
  5
3CC
330
3CA
100
AcDbEntity
  8
0
  6
ByBlock
 62
     0
100
AcDbMText
 10
1446.01156
 20
566.420702
 30
0.0
 40
14.47799999999999
 41
0.0
 71
     5
 72
     1
  1
\A1;R80.0
 11
0.9346982960339524
 21
-0.355442112574222
 31
0.0
 73
     1
 44
1.0
  0
SOLID
  5
3CD
330
3CA
100
AcDbEntity
  8
0
  6
ByBlock
 62
     0
100
AcDbTrace
 10
1486.142812
 20
541.07307
 30
0.0
 11
1484.337166
 21
536.3248019999997
 31
0.0
 12
1499.484791
 22
533.281998
 32
0.0
 13
1499.484791
 23
533.281998
 33
0.0
  0
POINT
  5
3CE
330
3CA
100
AcDbEntity
  8
DEFPOINTS
  6
ByBlock
 62
     0
100
AcDbPoint
 10
1499.484791
 20
533.281998
 30
0.0
  0
POINT
  5
3CF
330
3CA
100
AcDbEntity
  8
DEFPOINTS
  6
ByBlock
 62
     0
100
AcDbPoint
 10
1424.708928999999
 20
561.7173700000002
 30
0.0
  0
ENDBLK
  5
3D1
330
3CA
100
AcDbEntity
  8
0
100
AcDbBlockEnd
  0
BLOCK
  5
3D8
330
3D2
100
AcDbEntity
  8
0
100
AcDbBlockBegin
  2
*D53
 70
     1
 10
0.0
 20
0.0
 30
0.0
  3
*D53
  1

  0
LINE
  5
3D3
330
3D2
100
AcDbEntity
  8
0
  6
ByBlock
 62
     0
100
AcDbLine
 10
1397.657116
 20
771.784698
 30
0.0
 11
1400.395144
 21
884.1186960000001
 31
0.0
  0
MTEXT
  5
3D4
330
3D2
100
AcDbEntity
  8
0
  6
ByBlock
 62
     0
100
AcDbMText
 10
1386.690285
 20
813.0078449999999
 30
0.0
 40
14.47799999999999
 41
0.0
 71
     5
 72
     1
  1
\A1;R1000.0
 11
0.0243670019627865
 21
0.9997030805270862
 31
0.0
 73
     1
 44
1.0
  0
SOLID
  5
3D5
330
3D2
100
AcDbEntity
  8
0
  6
ByBlock
 62
     0
100
AcDbTrace
 10
1397.484549
 20
868.9451130000001
 30
0.0
 11
1402.56304
 21
868.8213300000001
 31
0.0
 12
1400.395144
 22
884.1186960000001
 32
0.0
 13
1400.395144
 23
884.1186960000001
 33
0.0
  0
POINT
  5
3D6
330
3D2
100
AcDbEntity
  8
DEFPOINTS
  6
ByBlock
 62
     0
100
AcDbPoint
 10
1400.395144
 20
884.1186960000001
 30
0.0
  0
POINT
  5
3D7
330
3D2
100
AcDbEntity
  8
DEFPOINTS
  6
ByBlock
 62
     0
100
AcDbPoint
 10
1376.028395
 20
-115.58439
 30
0.0
  0
ENDBLK
  5
3D9
330
3D2
100
AcDbEntity
  8
0
100
AcDbBlockEnd
  0
BLOCK
  5
3E0
330
3DA
100
AcDbEntity
  8
0
100
AcDbBlockBegin
  2
*D54
 70
     1
 10
0.0
 20
0.0
 30
0.0
  3
*D54
  1

  0
LINE
  5
3DB
330
3DA
100
AcDbEntity
  8
0
  6
ByBlock
 62
     0
100
AcDbLine
 10
1395.855068
 20
593.015307
 30
0.0
 11
1398.373425
 21
480.67617
 31
0.0
  0
MTEXT
  5
3DC
330
3DA
100
AcDbEntity
  8
0
  6
ByBlock
 62
     0
100
AcDbMText
 10
1408.737734
 20
552.3501369999999
 30
0.0
 40
14.47799999999999
 41
0.0
 71
     5
 72
     1
  1
\A1;R1000.0
 11
0.0224119959574926
 21
-0.9997488196728223
 31
0.0
 73
     1
 44
1.0
  0
SOLID
  5
3DD
330
3DA
100
AcDbEntity
  8
0
  6
ByBlock
 62
     0
100
AcDbTrace
 10
1400.571231
 20
495.9692679999998
 30
0.0
 11
1395.492506999999
 21
495.855416
 31
0.0
 12
1398.373425
 22
480.67617
 32
0.0
 13
1398.373425
 23
480.67617
 33
0.0
  0
POINT
  5
3DE
330
3DA
100
AcDbEntity
  8
DEFPOINTS
  6
ByBlock
 62
     0
100
AcDbPoint
 10
1398.373425
 20
480.67617
 30
0.0
  0
POINT
  5
3DF
330
3DA
100
AcDbEntity
  8
DEFPOINTS
  6
ByBlock
 62
     0
100
AcDbPoint
 10
1375.961607
 20
1480.424994
 30
0.0
  0
ENDBLK
  5
3E1
330
3DA
100
AcDbEntity
  8
0
100
AcDbBlockEnd
  0
BLOCK
  5
3EC
330
3E2
100
AcDbEntity
  8
0
100
AcDbBlockBegin
  2
*D55
 70
     1
 10
0.0
 20
0.0
 30
0.0
  3
*D55
  1

  0
LINE
  5
3E3
330
3E2
100
AcDbEntity
  8
0
  6
ByBlock
 62
     0
100
AcDbLine
 10
923.7566259999999
 20
715.3723339999998
 30
0.0
 11
934.76478
 21
715.3723339999998
 31
0.0
  0
LINE
  5
3E4
330
3E2
100
AcDbEntity
  8
0
  6
ByBlock
 62
     0
100
AcDbLine
 10
923.7566259999999
 20
665.3723339999998
 30
0.0
 11
934.76478
 21
665.3723339999998
 31
0.0
  0
LINE
  5
3E5
330
3E2
100
AcDbEntity
  8
0
  6
ByBlock
 62
     0
100
AcDbLine
 10
923.33478
 20
700.1323339999999
 30
0.0
 11
923.33478
 21
680.612334
 31
0.0
  0
SOLID
  5
3E6
330
3E2
100
AcDbEntity
  8
0
  6
ByBlock
 62
     0
100
AcDbTrace
 10
920.7947799999999
 20
700.1323339999999
 30
0.0
 11
925.87478
 21
700.1323339999999
 31
0.0
 12
923.33478
 22
715.3723339999998
 32
0.0
 13
923.33478
 23
715.3723339999998
 33
0.0
  0
SOLID
  5
3E7
330
3E2
100
AcDbEntity
  8
0
  6
ByBlock
 62
     0
100
AcDbTrace
 10
920.7947799999999
 20
680.612334
 30
0.0
 11
925.87478
 21
680.612334
 31
0.0
 12
923.33478
 22
665.3723339999998
 32
0.0
 13
923.33478
 23
665.3723339999998
 33
0.0
  0
MTEXT
  5
3E8
330
3E2
100
AcDbEntity
  8
0
  6
ByBlock
 62
     0
100
AcDbMText
 10
911.3667299999999
 20
690.3723339999998
 30
0.0
 40
14.47799999999999
 41
0.0
 71
     5
 72
     1
  1
\A1;50.0
 11
0.0
 21
1.0
 31
0.0
 73
     1
 44
1.0
  0
POINT
  5
3E9
330
3E2
100
AcDbEntity
  8
DEFPOINTS
  6
ByBlock
 62
     0
100
AcDbPoint
 10
917.6606259999998
 20
715.3723339999998
 30
0.0
  0
POINT
  5
3EA
330
3E2
100
AcDbEntity
  8
DEFPOINTS
  6
ByBlock
 62
     0
100
AcDbPoint
 10
917.6606259999998
 20
665.3723339999998
 30
0.0
  0
POINT
  5
3EB
330
3E2
100
AcDbEntity
  8
DEFPOINTS
  6
ByBlock
 62
     0
100
AcDbPoint
 10
923.33478
 20
665.3723339999998
 30
0.0
  0
ENDBLK
  5
3ED
330
3E2
100
AcDbEntity
  8
0
100
AcDbBlockEnd
  0
BLOCK
  5
3F4
330
3EE
100
AcDbEntity
  8
0
100
AcDbBlockBegin
  2
*D56
 70
     1
 10
0.0
 20
0.0
 30
0.0
  3
*D56
  1

  0
LINE
  5
3EF
330
3EE
100
AcDbEntity
  8
0
  6
ByBlock
 62
     0
100
AcDbLine
 10
902.1927559999999
 20
598.3207759999998
 30
0.0
 11
900.120713
 21
481.152278
 31
0.0
  0
MTEXT
  5
3F0
330
3EE
100
AcDbEntity
  8
0
  6
ByBlock
 62
     0
100
AcDbMText
 10
889.4600219999999
 20
555.185758
 30
0.0
 40
14.47799999999999
 41
0.0
 71
     5
 72
     1
  1
\A1;R5000.0
 11
0.0176819940105792
 21
0.999843661323014
 31
0.0
 73
     1
 44
1.0
  0
SOLID
  5
3F1
330
3EE
100
AcDbEntity
  8
0
  6
ByBlock
 62
     0
100
AcDbTrace
 10
897.8505769999998
 20
496.4348069999999
 30
0.0
 11
902.929782
 21
496.3449849999998
 31
0.0
 12
900.120713
 22
481.152278
 32
0.0
 13
900.120713
 23
481.152278
 33
0.0
  0
POINT
  5
3F2
330
3EE
100
AcDbEntity
  8
DEFPOINTS
  6
ByBlock
 62
     0
100
AcDbPoint
 10
900.120713
 20
481.152278
 30
0.0
  0
POINT
  5
3F3
330
3EE
100
AcDbEntity
  8
DEFPOINTS
  6
ByBlock
 62
     0
100
AcDbPoint
 10
988.5283949999999
 20
5480.370624999999
 30
0.0
  0
ENDBLK
  5
3F5
330
3EE
100
AcDbEntity
  8
0
100
AcDbBlockEnd
  0
BLOCK
  5
41C
330
3F6
100
AcDbEntity
  8
0
100
AcDbBlockBegin
  2
A$C040035AA
 70
     0
 10
0.0
 20
0.0
 30
0.0
  3
A$C040035AA
  1

  0
DIMENSION
  5
3F7
330
3F6
100
AcDbEntity
  8
DIM
100
AcDbDimension
  2
*D46
 10
6254.999990560859
 20
781.0050169543732
 30
0.0
 11
1329.330887560859
 21
851.0133879543731
 31
0.0
 12
491.4715955608587
 22
115.5843919543731
 32
0.0
 70
   164
 71
     5
 42
-1.0
  3
B
100
AcDbRadialDimension
 15
1255.504934560859
 25
852.062672954373
 35
0.0
 40
0.0
1001
ACAD
1000
DSTYLE
1002
{
1070
   288
1070
     1
1070
   289
1070
     3
1002
}
  0
DIMENSION
  5
3F8
330
3F6
100
AcDbEntity
  8
DIM
100
AcDbDimension
  2
*D56
 10
1479.999990560859
 20
5595.955016954373
 30
0.0
 11
1392.897796560859
 21
670.558536954373
 31
0.0
 12
491.4715955608587
 22
115.5843919543731
 32
0.0
 70
   164
 71
     5
 42
-1.0
  3
B
100
AcDbRadialDimension
 15
1391.592308560859
 25
596.736669954373
 35
0.0
 40
0.0
1001
ACAD
1000
DSTYLE
1002
{
1070
   288
1070
     1
1070
   289
1070
     3
1002
}
  0
DIMENSION
  5
3F9
330
3F6
100
AcDbEntity
  8
DIM
100
AcDbDimension
  2
*D51
 10
-0.0000094391409675
 20
798.5050169543732
 30
0.0
 11
1925.429750560859
 21
851.7776489543731
 31
0.0
 12
491.4715955608587
 22
115.5843919543731
 32
0.0
 70
   164
 71
     5
 42
-1.0
  3
B
100
AcDbRadialDimension
 15
1999.234915560859
 25
853.8196839543731
 35
0.0
 40
0.0
1001
ACAD
1000
DSTYLE
1002
{
1070
   288
1070
     1
1070
   289
1070
     3
1002
}
  0
DIMENSION
  5
3FA
330
3F6
100
AcDbEntity
  8
DIM
100
AcDbDimension
  2
*D44
 10
1166.738939560859
 20
595.955016954373
 30
0.0
 11
1154.608932560859
 21
830.9575999543731
 31
0.0
 12
491.4715955608587
 22
115.5843919543731
 32
0.0
 70
    32
 71
     5
 42
-1.0
  3
B
100
AcDbAlignedDimension
 13
1479.999990560859
 23
1065.960183954373
 33
0.0
 14
1479.999990560859
 24
595.955016954373
 34
0.0
 50
90.0
100
AcDbRotatedDimension
1001
ACAD
1000
DSTYLE
1002
{
1070
   289
1070
     3
1002
}
  0
DIMENSION
  5
3FB
330
3F6
100
AcDbEntity
  8
DIM
100
AcDbDimension
  2
*D54
 10
1867.433202560859
 20
1596.009385954373
 30
0.0
 11
1888.244286560859
 21
667.6663029543731
 31
0.0
 12
491.4715955608587
 22
115.5843919543731
 32
0.0
 70
   164
 71
     5
 42
-1.0
  3
B
100
AcDbRadialDimension
 15
1889.845020560859
 25
596.260561954373
 35
0.0
 40
0.0
1001
ACAD
1000
DSTYLE
1002
{
1070
   288
1070
     1
1070
   289
1070
     3
1002
}
  0
DIMENSION
  5
3FC
330
3F6
100
AcDbEntity
  8
DIM
100
AcDbDimension
  2
*D48
 10
1479.999990560859
 20
565.9601839543729
 30
0.0
 11
1526.133472560859
 21
995.6941609543733
 31
0.0
 12
491.4715955608587
 22
115.5843919543731
 32
0.0
 70
   164
 71
     5
 42
-1.0
  3
B
100
AcDbRadialDimension
 15
1533.370123560858
 25
1063.103652954373
 35
0.0
 40
0.0
1001
ACAD
1000
DSTYLE
1002
{
1070
   288
1070
     1
1070
   289
1070
     3
1002
}
  0
ARC
  5
3FD
330
3F6
100
AcDbEntity
  8
0
100
AcDbCircle
 10
1553.332027560859
 20
908.191701954373
 30
0.0
 40
150.0
100
AcDbArc
 50
42.587299
 51
77.90576899999996
  0
ARC
  5
3FE
330
3F6
100
AcDbEntity
  8
0
100
AcDbCircle
 10
1406.667952560859
 20
908.191701954373
 30
0.0
 40
150.0
100
AcDbArc
 50
102.0942309999999
 51
178.4972999999999
  0
LINE
  5
3FF
330
3F6
100
AcDbEntity
  8
CENTER
100
AcDbLine
 10
1867.517930560859
 20
533.154172954373
 30
0.0
 11
1867.517930560859
 21
1087.654946954373
 31
0.0
  0
LINE
  5
400
330
3F6
100
AcDbEntity
  8
CENTER
100
AcDbLine
 10
1481.405040560859
 20
529.7640529543731
 30
0.0
 11
1481.405040560859
 21
1113.945927954373
 31
0.0
  0
DIMENSION
  5
401
330
3F6
100
AcDbEntity
  8
DIM
100
AcDbDimension
  2
*D53
 10
1867.499990560858
 20
0.0000019543731469
 30
0.0
 11
1890.126376560859
 21
928.3006139543733
 31
0.0
 12
491.4715955608587
 22
115.5843919543731
 32
0.0
 70
   164
 71
     5
 42
-1.0
  3
B
100
AcDbRadialDimension
 15
1891.866739560859
 25
999.7030879543734
 35
0.0
 40
0.0
1001
ACAD
1000
DSTYLE
1002
{
1070
   288
1070
     1
1070
   289
1070
     3
1002
}
  0
DIMENSION
  5
402
330
3F6
100
AcDbEntity
  8
DIM
100
AcDbDimension
  2
*D49
 10
1685.856509560859
 20
1030.000001954372
 30
0.0
 11
1634.949706560859
 21
953.6557999543733
 31
0.0
 12
491.4715955608587
 22
115.5843919543731
 32
0.0
 70
   164
 71
     5
 42
-1.0
  3
B
100
AcDbRadialDimension
 15
1669.213088560859
 25
1005.040102954372
 35
0.0
 40
0.0
1001
ACAD
1000
DSTYLE
1002
{
1070
   288
1070
     1
1070
   289
1070
     3
1002
}
  0
DIMENSION
  5
403
330
3F6
100
AcDbEntity
  8
DIM
100
AcDbDimension
  2
*D42
 10
1999.999899560858
 20
503.0709629543729
 30
0.0
 11
1627.499945560859
 21
515.2009699543731
 31
0.0
 12
491.4715955608587
 22
115.5843919543731
 32
0.0
 70
    32
 71
     5
 42
-1.0
  3
B
100
AcDbAlignedDimension
 13
1254.999990560859
 23
780.9567259543731
 33
0.0
 14
1999.999899560858
 24
797.903878954373
 34
0.0
100
AcDbRotatedDimension
1001
ACAD
1000
DSTYLE
1002
{
1070
   289
1070
     3
1002
}
  0
LINE
  5
404
330
3F6
100
AcDbEntity
  8
0
100
AcDbLine
 10
1479.999990560859
 20
595.955016954373
 30
0.0
 11
1867.516948560859
 21
596.0093889543728
 31
0.0
  0
MTEXT
  5
405
330
3F6
100
AcDbEntity
  8
DIM
100
AcDbMText
 10
1571.123181560859
 20
717.7903539543731
 30
0.0
 40
40.0
 41
231.4869999999999
 71
     1
 72
     5
  1
\C4;3121
 73
     1
 44
1.0
  0
DIMENSION
  5
406
330
3F6
100
AcDbEntity
  8
DIM
100
AcDbDimension
  2
*D40
 10
1867.517930560859
 20
551.568259954373
 30
0.0
 11
1674.461485560859
 21
563.3792599543729
 31
0.0
 12
491.4715955608587
 22
115.5843919543731
 32
0.0
 70
    32
 71
     5
 42
-1.0
  3
B
100
AcDbAlignedDimension
 13
1481.405040560859
 23
549.8848029543729
 33
0.0
 14
1867.517930560859
 24
549.8848029543729
 34
0.0
100
AcDbRotatedDimension
1001
ACAD
1000
DSTYLE
1002
{
1070
   289
1070
     3
1002
}
  0
LINE
  5
407
330
3F6
100
AcDbEntity
  8
CENTER
100
AcDbLine
 10
1194.671576560859
 20
830.9567259543731
 30
0.0
 11
2043.908813560859
 21
830.9567259543731
 31
0.0
  0
ARC
  5
408
330
3F6
100
AcDbEntity
  8
0
  6
Continuous
100
AcDbCircle
 10
1345.884957560859
 20
687.7870129543731
 30
0.0
 40
90.0
100
AcDbArc
 50
181.0878449999999
 51
268.43479
  0
ARC
  5
409
330
3F6
100
AcDbEntity
  8
0
  6
Continuous
100
AcDbCircle
 10
1479.999990560859
 20
5595.955016954373
 30
0.0
 40
5000.0
100
AcDbArc
 50
268.43479
 51
270.016078
  0
DIMENSION
  5
40A
330
3F6
100
AcDbEntity
  8
DIM
100
AcDbDimension
  2
*D55
 10
1414.806375560859
 20
780.9567259543731
 30
0.0
 11
1402.838325560858
 21
805.9567259543731
 31
0.0
 12
491.4715955608587
 22
115.5843919543731
 32
0.0
 70
    32
 71
     5
 42
-1.0
  3
B
100
AcDbAlignedDimension
 13
1409.132221560859
 23
830.9567259543731
 33
0.0
 14
1409.132221560859
 24
780.9567259543731
 34
0.0
 50
90.0
100
AcDbRotatedDimension
1001
ACAD
1000
DSTYLE
1002
{
1070
   289
1070
     3
1002
}
  0
LINE
  5
40B
330
3F6
100
AcDbEntity
  8
CENTER
100
AcDbLine
 10
1192.279350560859
 20
780.9567259543731
 30
0.0
 11
1554.418962560859
 21
780.9567259543731
 31
0.0
  0
ARC
  5
40C
330
3F6
100
AcDbEntity
  8
0
  6
Continuous
100
AcDbCircle
 10
6254.999990560859
 20
781.0050169543732
 30
0.0
 40
5000.0
100
AcDbArc
 50
178.4972999999999
 51
181.0878449999999
  0
DIMENSION
  5
40D
330
3F6
100
AcDbEntity
  8
DIM
100
AcDbDimension
  2
*D47
 10
1345.884957560859
 20
687.7870129543731
 30
0.0
 11
1326.366475560859
 21
667.3783499543731
 31
0.0
 12
491.4715955608587
 22
115.5843919543731
 32
0.0
 70
   164
 71
     5
 42
-1.0
  3
B
100
AcDbRadialDimension
 15
1283.679658560859
 25
622.7447129543731
 35
0.0
 40
0.0
1001
ACAD
1000
DSTYLE
1002
{
1070
   288
1070
     1
1070
   289
1070
     3
1002
}
  0
DIMENSION
  5
40E
330
3F6
100
AcDbEntity
  8
DIM
100
AcDbDimension
  2
*D45
 10
1406.667952560859
 20
908.191701954373
 30
0.0
 11
1362.182556560859
 21
978.7492029543733
 31
0.0
 12
491.4715955608587
 22
115.5843919543731
 32
0.0
 70
   164
 71
     5
 42
-1.0
  3
B
100
AcDbRadialDimension
 15
1326.668318560859
 25
1035.077708954373
 35
0.0
 40
0.0
1001
ACAD
1000
DSTYLE
1002
{
1070
   288
1070
     1
1070
   289
1070
     3
1002
}
  0
DIMENSION
  5
40F
330
3F6
100
AcDbEntity
  8
DIM
100
AcDbDimension
  2
*D43
 10
2097.986684560859
 20
596.0093949543732
 30
0.0
 11
2085.85667756086
 21
798.0046979543731
 31
0.0
 12
491.4715955608587
 22
115.5843919543731
 32
0.0
 70
    32
 71
     5
 42
-1.0
  3
B
100
AcDbAlignedDimension
 13
1867.499990560858
 23
1000.000001954373
 33
0.0
 14
1867.556673560859
 24
596.0093949543732
 34
0.0
 50
90.0
100
AcDbRotatedDimension
1001
ACAD
1000
DSTYLE
1002
{
1070
   289
1070
     3
1002
}
  0
ARC
  5
410
330
3F6
100
AcDbEntity
  8
0
100
AcDbCircle
 10
1916.180524560859
 20
677.3017619543732
 30
0.0
 40
80.0
100
AcDbArc
 50
273.037309
 51
356.385396
  0
ARC
  5
411
330
3F6
100
AcDbEntity
  8
0
100
AcDbCircle
 10
1867.433202560859
 20
1596.009385954373
 30
0.0
 40
1000.0
100
AcDbArc
 50
270.0047979999999
 51
273.037309
  0
DIMENSION
  5
412
330
3F6
100
AcDbEntity
  8
DIM
100
AcDbDimension
  2
*D52
 10
1916.180524560859
 20
677.3017619543732
 30
0.0
 11
1933.229206560859
 21
670.8185779543732
 31
0.0
 12
491.4715955608587
 22
115.5843919543731
 32
0.0
 70
   164
 71
     5
 42
-1.0
  3
B
100
AcDbRadialDimension
 15
1990.956386560859
 25
648.866389954373
 35
0.0
 40
0.0
1001
ACAD
1000
DSTYLE
1002
{
1070
   288
1070
     1
1070
   289
1070
     3
1002
}
  0
DIMENSION
  5
413
330
3F6
100
AcDbEntity
  8
DIM
100
AcDbDimension
  2
*D50
 10
1916.233576560859
 20
918.708354954373
 30
0.0
 11
1931.542529560859
 21
928.6242609543732
 31
0.0
 12
491.4715955608587
 22
115.5843919543731
 32
0.0
 70
   164
 71
     5
 42
-1.0
  3
B
100
AcDbRadialDimension
 15
1983.378951560859
 25
962.199716954373
 35
0.0
 40
0.0
1001
ACAD
1000
DSTYLE
1002
{
1070
   288
1070
     1
1070
   289
1070
     3
1002
}
  0
ARC
  5
414
330
3F6
100
AcDbEntity
  8
0
100
AcDbCircle
 10
1867.499990560858
 20
0.0000019543731469
 30
0.0
 40
1000.0
100
AcDbArc
 50
86.96354799999998
 51
90.0
  0
LINE
  5
415
330
3F6
100
AcDbEntity
  8
CENTER
100
AcDbLine
 10
2064.906075560859
 20
797.903878954373
 30
0.0
 11
1744.881613560859
 21
797.903878954373
 31
0.0
  0
DIMENSION
  5
416
330
3F6
100
AcDbEntity
  8
DIM
100
AcDbDimension
  2
*D41
 10
1783.434370560859
 20
830.9567259543731
 30
0.0
 11
1771.623370560859
 21
885.3127259543731
 31
0.0
 12
491.4715955608587
 22
115.5843919543731
 32
0.0
 70
    32
 71
     5
 42
-1.0
  3
B
100
AcDbAlignedDimension
 13
1812.443002560859
 23
797.903878954373
 33
0.0
 14
1812.443002560859
 24
830.9567259543731
 34
0.0
 50
90.0
100
AcDbRotatedDimension
1001
ACAD
1000
DSTYLE
1002
{
1070
   289
1070
     3
1002
}
  0
LINE
  5
417
330
3F6
100
AcDbEntity
  8
0
100
AcDbLine
 10
1867.499990560858
 20
1000.000001954373
 30
0.0
 11
1685.856509560859
 21
1000.000001954373
 31
0.0
  0
ARC
  5
418
330
3F6
100
AcDbEntity
  8
0
100
AcDbCircle
 10
1685.856509560859
 20
1030.000001954372
 30
0.0
 40
30.0
100
AcDbArc
 50
222.587299
 51
270.0
  0
ARC
  5
419
330
3F6
100
AcDbEntity
  8
0
  6
Continuous
100
AcDbCircle
 10
-0.0000094391409675
 20
798.5050169543732
 30
0.0
 40
2000.0
100
AcDbArc
 50
356.3762759999999
 51
3.589402000000007
  0
ARC
  5
41A
330
3F6
100
AcDbEntity
  8
0
100
AcDbCircle
 10
1916.233576560859
 20
918.708354954373
 30
0.0
 40
80.0
100
AcDbArc
 50
3.589401999999997
 51
86.96354799999998
  0
ARC
  5
41B
330
3F6
100
AcDbEntity
  8
0
100
AcDbCircle
 10
1479.999990560859
 20
565.9601839543729
 30
0.0
 40
500.0
100
AcDbArc
 50
77.90576899999996
 51
102.0942309999999
  0
ENDBLK
  5
41D
330
3F6
100
AcDbEntity
  8
0
100
AcDbBlockEnd
  0
BLOCK
  5
929
330
923
100
AcDbEntity
  8
0
100
AcDbBlockBegin
  2
*D58
 70
     1
 10
0.0
 20
0.0
 30
0.0
  3
*D58
  1

  0
LINE
  5
924
330
923
100
AcDbEntity
  8
0
  6
ByBlock
 62
     0
100
AcDbLine
 10
-821.7833362099733
 20
449.3102746231082
 30
0.0
 11
-820.0456431027216
 21
426.5164153038749
 31
0.0
  0
MTEXT
  5
925
330
923
100
AcDbEntity
  8
0
  6
ByBlock
 62
     0
100
AcDbMText
 10
-824.0568180252942
 20
479.1322405657721
 30
0.0
 40
11.43
 41
0.0
 71
     5
 72
     1
  1
\A1;R805.5
 11
0.076014571620811
 21
-0.9971067068781078
 31
0.0
 73
     1
 44
1.0
  0
SOLID
  5
926
330
923
100
AcDbEntity
  8
0
  6
ByBlock
 62
     0
100
AcDbTrace
 10
-819.0150013797445
 20
438.0581527224292
 30
0.0
 11
-822.8139779329502
 21
437.7685372045539
 31
0.0
 12
-820.0456431027216
 22
426.5164153038749
 32
0.0
 13
-820.0456431027216
 23
426.5164153038749
 33
0.0
  0
POINT
  5
927
330
923
100
AcDbEntity
  8
DEFPOINTS
  6
ByBlock
 62
     0
100
AcDbPoint
 10
-820.0456431027216
 20
426.5164153038749
 30
0.0
  0
POINT
  5
928
330
923
100
AcDbEntity
  8
DEFPOINTS
  6
ByBlock
 62
     0
100
AcDbPoint
 10
-881.2753805432842
 20
1229.685867694184
 30
0.0
  0
ENDBLK
  5
92A
330
923
100
AcDbEntity
  8
0
100
AcDbBlockEnd
  0
BLOCK
  5
931
330
92B
100
AcDbEntity
  8
0
100
AcDbBlockBegin
  2
*D59
 70
     1
 10
0.0
 20
0.0
 30
0.0
  3
*D59
  1

  0
LINE
  5
92C
330
92B
100
AcDbEntity
  8
0
  6
ByBlock
 62
     0
100
AcDbLine
 10
-1328.144249973691
 20
448.4505134773463
 30
0.0
 11
-1329.513234890357
 21
425.631541539549
 31
0.0
  0
MTEXT
  5
92D
330
92B
100
AcDbEntity
  8
0
  6
ByBlock
 62
     0
100
AcDbMText
 10
-1326.353161374387
 20
478.305335095963
 30
0.0
 40
11.43
 41
0.0
 71
     5
 72
     1
  1
\A1;R805.5
 11
0.0598856044035717
 21
0.9982052466227669
 31
0.0
 73
     1
 44
1.0
  0
SOLID
  5
92E
330
92B
100
AcDbEntity
  8
0
  6
ByBlock
 62
     0
100
AcDbTrace
 10
-1330.73032342684
 20
437.1551095848361
 30
0.0
 11
-1326.927161437208
 21
436.9269454320583
 31
0.0
 12
-1329.513234890357
 22
425.631541539549
 32
0.0
 13
-1329.513234890357
 23
425.631541539549
 33
0.0
  0
POINT
  5
92F
330
92B
100
AcDbEntity
  8
DEFPOINTS
  6
ByBlock
 62
     0
100
AcDbPoint
 10
-1329.513234890357
 20
425.631541539549
 30
0.0
  0
POINT
  5
930
330
92B
100
AcDbEntity
  8
DEFPOINTS
  6
ByBlock
 62
     0
100
AcDbPoint
 10
-1281.27538054328
 20
1229.685867694184
 30
0.0
  0
ENDBLK
  5
932
330
92B
100
AcDbEntity
  8
0
100
AcDbBlockEnd
  0
BLOCK
  5
93D
330
933
100
AcDbEntity
  8
0
100
AcDbBlockBegin
  2
*D60
 70
     1
 10
0.0
 20
0.0
 30
0.0
  3
*D60
  1

  0
LINE
  5
934
330
933
100
AcDbEntity
  8
0
  6
ByBlock
 62
     0
100
AcDbLine
 10
-1286.508240764961
 20
1297.399374592012
 30
0.0
 11
-1286.508240764961
 21
1291.625279293016
 31
0.0
  0
LINE
  5
935
330
933
100
AcDbEntity
  8
0
  6
ByBlock
 62
     0
100
AcDbLine
 10
-891.8016425317729
 20
1297.399374592012
 30
0.0
 11
-891.8016425317729
 21
1291.625279293016
 31
0.0
  0
LINE
  5
936
330
933
100
AcDbEntity
  8
0
  6
ByBlock
 62
     0
100
AcDbLine
 10
-1275.078240764959
 20
1299.245279293016
 30
0.0
 11
-903.2316425317727
 21
1299.245279293016
 31
0.0
  0
SOLID
  5
937
330
933
100
AcDbEntity
  8
0
  6
ByBlock
 62
     0
100
AcDbTrace
 10
-1275.078240764959
 20
1301.150279293016
 30
0.0
 11
-1275.078240764959
 21
1297.340279293016
 31
0.0
 12
-1286.508240764961
 22
1299.245279293016
 32
0.0
 13
-1286.508240764961
 23
1299.245279293016
 33
0.0
  0
SOLID
  5
938
330
933
100
AcDbEntity
  8
0
  6
ByBlock
 62
     0
100
AcDbTrace
 10
-903.2316425317727
 20
1301.150279293016
 30
0.0
 11
-903.2316425317727
 21
1297.340279293016
 31
0.0
 12
-891.8016425317729
 22
1299.245279293016
 32
0.0
 13
-891.8016425317729
 23
1299.245279293016
 33
0.0
  0
MTEXT
  5
939
330
933
100
AcDbEntity
  8
0
  6
ByBlock
 62
     0
100
AcDbMText
 10
-1089.154941648367
 20
1307.246279293015
 30
0.0
 40
11.43
 41
0.0
 71
     5
 72
     1
  1
\A1;394.7
 73
     1
 44
1.0
  0
POINT
  5
93A
330
933
100
AcDbEntity
  8
DEFPOINTS
  6
ByBlock
 62
     0
100
AcDbPoint
 10
-1286.508240764961
 20
1299.780624592013
 30
0.0
  0
POINT
  5
93B
330
933
100
AcDbEntity
  8
DEFPOINTS
  6
ByBlock
 62
     0
100
AcDbPoint
 10
-891.8016425317729
 20
1299.780624592013
 30
0.0
  0
POINT
  5
93C
330
933
100
AcDbEntity
  8
DEFPOINTS
  6
ByBlock
 62
     0
100
AcDbPoint
 10
-891.8016425317729
 20
1299.245279293016
 30
0.0
  0
ENDBLK
  5
93E
330
933
100
AcDbEntity
  8
0
100
AcDbBlockEnd
  0
BLOCK
  5
949
330
93F
100
AcDbEntity
  8
0
100
AcDbBlockBegin
  2
*D61
 70
     1
 10
0.0
 20
0.0
 30
0.0
  3
*D61
  1

  0
LINE
  5
940
330
93F
100
AcDbEntity
  8
0
  6
ByBlock
 62
     0
100
AcDbLine
 10
-1487.490401510302
 20
1572.163023651306
 30
0.0
 11
-1487.490401510302
 21
1227.25932199167
 31
0.0
  0
LINE
  5
941
330
93F
100
AcDbEntity
  8
0
  6
ByBlock
 62
     0
100
AcDbLine
 10
-725.5225405555116
 20
1546.865131478434
 30
0.0
 11
-725.5225405555116
 21
1227.25932199167
 31
0.0
  0
LINE
  5
942
330
93F
100
AcDbEntity
  8
0
  6
ByBlock
 62
     0
100
AcDbLine
 10
-1476.060401510303
 20
1234.87932199167
 30
0.0
 11
-736.9525405555117
 21
1234.87932199167
 31
0.0
  0
SOLID
  5
943
330
93F
100
AcDbEntity
  8
0
  6
ByBlock
 62
     0
100
AcDbTrace
 10
-1476.060401510303
 20
1236.78432199167
 30
0.0
 11
-1476.060401510303
 21
1232.97432199167
 31
0.0
 12
-1487.490401510302
 22
1234.87932199167
 32
0.0
 13
-1487.490401510302
 23
1234.87932199167
 33
0.0
  0
SOLID
  5
944
330
93F
100
AcDbEntity
  8
0
  6
ByBlock
 62
     0
100
AcDbTrace
 10
-736.9525405555117
 20
1236.78432199167
 30
0.0
 11
-736.9525405555117
 21
1232.97432199167
 31
0.0
 12
-725.5225405555116
 22
1234.87932199167
 32
0.0
 13
-725.5225405555116
 23
1234.87932199167
 33
0.0
  0
MTEXT
  5
945
330
93F
100
AcDbEntity
  8
0
  6
ByBlock
 62
     0
100
AcDbMText
 10
-1106.506471032907
 20
1242.880321991669
 30
0.0
 40
11.43
 41
0.0
 71
     5
 72
     1
  1
\A1;762.0
 73
     1
 44
1.0
  0
POINT
  5
946
330
93F
100
AcDbEntity
  8
DEFPOINTS
  6
ByBlock
 62
     0
100
AcDbPoint
 10
-1487.490401510302
 20
1574.544273651306
 30
0.0
  0
POINT
  5
947
330
93F
100
AcDbEntity
  8
DEFPOINTS
  6
ByBlock
 62
     0
100
AcDbPoint
 10
-725.5225405555116
 20
1549.246381478434
 30
0.0
  0
POINT
  5
948
330
93F
100
AcDbEntity
  8
DEFPOINTS
  6
ByBlock
 62
     0
100
AcDbPoint
 10
-725.5225405555116
 20
1234.87932199167
 30
0.0
  0
ENDBLK
  5
94A
330
93F
100
AcDbEntity
  8
0
100
AcDbBlockEnd
  0
BLOCK
  5
955
330
94B
100
AcDbEntity
  8
0
100
AcDbBlockBegin
  2
*D62
 70
     1
 10
0.0
 20
0.0
 30
0.0
  3
*D62
  1

  0
LINE
  5
94C
330
94B
100
AcDbEntity
  8
0
  6
ByBlock
 62
     0
100
AcDbLine
 10
-889.4203925333114
 20
1757.053019780828
 30
0.0
 11
-616.6975560479357
 21
1757.053019780828
 31
0.0
  0
LINE
  5
94D
330
94B
100
AcDbEntity
  8
0
  6
ByBlock
 62
     0
100
AcDbLine
 10
-889.4203925317727
 20
1342.053080691461
 30
0.0
 11
-616.6975560479357
 21
1342.053080691461
 31
0.0
  0
LINE
  5
94E
330
94B
100
AcDbEntity
  8
0
  6
ByBlock
 62
     0
100
AcDbLine
 10
-624.3175560479357
 20
1745.623019780829
 30
0.0
 11
-624.3175560479357
 21
1353.483080691461
 31
0.0
  0
SOLID
  5
94F
330
94B
100
AcDbEntity
  8
0
  6
ByBlock
 62
     0
100
AcDbTrace
 10
-626.2225560479357
 20
1745.623019780829
 30
0.0
 11
-622.4125560479357
 21
1745.623019780829
 31
0.0
 12
-624.3175560479357
 22
1757.053019780828
 32
0.0
 13
-624.3175560479357
 23
1757.053019780828
 33
0.0
  0
SOLID
  5
950
330
94B
100
AcDbEntity
  8
0
  6
ByBlock
 62
     0
100
AcDbTrace
 10
-626.2225560479357
 20
1353.483080691461
 30
0.0
 11
-622.4125560479357
 21
1353.483080691461
 31
0.0
 12
-624.3175560479357
 22
1342.053080691461
 32
0.0
 13
-624.3175560479357
 23
1342.053080691461
 33
0.0
  0
MTEXT
  5
951
330
94B
100
AcDbEntity
  8
0
  6
ByBlock
 62
     0
100
AcDbMText
 10
-632.3185560479355
 20
1549.553050236145
 30
0.0
 40
11.43
 41
0.0
 71
     5
 72
     1
  1
\A1;415.0
 11
0.0000000000000001
 21
1.0
 31
0.0
 73
     1
 44
1.0
  0
POINT
  5
952
330
94B
100
AcDbEntity
  8
DEFPOINTS
  6
ByBlock
 62
     0
100
AcDbPoint
 10
-891.8016425333117
 20
1757.053019780828
 30
0.0
  0
POINT
  5
953
330
94B
100
AcDbEntity
  8
DEFPOINTS
  6
ByBlock
 62
     0
100
AcDbPoint
 10
-891.8016425317729
 20
1342.053080691461
 30
0.0
  0
POINT
  5
954
330
94B
100
AcDbEntity
  8
DEFPOINTS
  6
ByBlock
 62
     0
100
AcDbPoint
 10
-624.3175560479357
 20
1342.053080691461
 30
0.0
  0
ENDBLK
  5
956
330
94B
100
AcDbEntity
  8
0
100
AcDbBlockEnd
  0
BLOCK
  5
961
330
957
100
AcDbEntity
  8
0
100
AcDbBlockBegin
  2
*D63
 70
     1
 10
0.0
 20
0.0
 30
0.0
  3
*D63
  1

  0
LINE
  5
958
330
957
100
AcDbEntity
  8
0
  6
ByBlock
 62
     0
100
AcDbLine
 10
-1288.889490767586
 20
1815.053077617787
 30
0.0
 11
-1586.418415029749
 21
1815.053077617787
 31
0.0
  0
LINE
  5
959
330
957
100
AcDbEntity
  8
0
  6
ByBlock
 62
     0
100
AcDbLine
 10
-1288.803674115684
 20
1342.053080691461
 30
0.0
 11
-1586.418415029749
 21
1342.053080691461
 31
0.0
  0
LINE
  5
95A
330
957
100
AcDbEntity
  8
0
  6
ByBlock
 62
     0
100
AcDbLine
 10
-1578.798415029749
 20
1803.623077617787
 30
0.0
 11
-1578.798415029749
 21
1353.483080691461
 31
0.0
  0
SOLID
  5
95B
330
957
100
AcDbEntity
  8
0
  6
ByBlock
 62
     0
100
AcDbTrace
 10
-1580.703415029749
 20
1803.623077617787
 30
0.0
 11
-1576.893415029749
 21
1803.623077617787
 31
0.0
 12
-1578.798415029749
 22
1815.053077617787
 32
0.0
 13
-1578.798415029749
 23
1815.053077617787
 33
0.0
  0
SOLID
  5
95C
330
957
100
AcDbEntity
  8
0
  6
ByBlock
 62
     0
100
AcDbTrace
 10
-1580.703415029749
 20
1353.483080691461
 30
0.0
 11
-1576.893415029749
 21
1353.483080691461
 31
0.0
 12
-1578.798415029749
 22
1342.053080691461
 32
0.0
 13
-1578.798415029749
 23
1342.053080691461
 33
0.0
  0
MTEXT
  5
95D
330
957
100
AcDbEntity
  8
0
  6
ByBlock
 62
     0
100
AcDbMText
 10
-1586.799415029749
 20
1578.553079154624
 30
0.0
 40
11.43
 41
0.0
 71
     5
 72
     1
  1
\A1;473.0
 11
0.0000000000000001
 21
1.0
 31
0.0
 73
     1
 44
1.0
  0
POINT
  5
95E
330
957
100
AcDbEntity
  8
DEFPOINTS
  6
ByBlock
 62
     0
100
AcDbPoint
 10
-1286.508240767587
 20
1815.053077617787
 30
0.0
  0
POINT
  5
95F
330
957
100
AcDbEntity
  8
DEFPOINTS
  6
ByBlock
 62
     0
100
AcDbPoint
 10
-1286.422424115684
 20
1342.053080691461
 30
0.0
  0
POINT
  5
960
330
957
100
AcDbEntity
  8
DEFPOINTS
  6
ByBlock
 62
     0
100
AcDbPoint
 10
-1578.798415029749
 20
1342.053080691461
 30
0.0
  0
ENDBLK
  5
962
330
957
100
AcDbEntity
  8
0
100
AcDbBlockEnd
  0
BLOCK
  5
97C
330
963
100
AcDbEntity
  8
0
100
AcDbBlockBegin
  2
A$C66E61FC0
 70
     0
 10
0.0
 20
0.0
 30
0.0
  3
A$C66E61FC0
  1

  0
DIMENSION
  5
964
330
963
100
AcDbEntity
  8
0
  6
Continuous
100
AcDbDimension
  2
*D62
 10
968.1968719959986
 20
916.421543863824
 30
0.0
 11
960.1958719959986
 21
1123.921513408506
 31
0.0
 12
1592.514428043934
 22
-425.6315368276373
 32
0.0
 70
    32
 71
     5
 42
-1.0
  3
B
100
AcDbAlignedDimension
 13
700.7127855106225
 23
1331.421482953192
 33
0.0
 14
700.7127855121615
 24
916.421543863824
 34
0.0
 50
90.0
100
AcDbRotatedDimension
1001
ACAD
1000
DSTYLE
1002
{
1070
   289
1070
     3
1002
}
  0
DIMENSION
  5
965
330
963
100
AcDbEntity
  8
0
  6
Continuous
100
AcDbDimension
  2
*D63
 10
13.71601301418559
 20
916.421543863824
 30
0.0
 11
5.715013014185616
 21
1152.921542326987
 31
0.0
 12
1592.514428043934
 22
-425.6315368276373
 32
0.0
 70
    32
 71
     5
 42
-1.0
  3
B
100
AcDbAlignedDimension
 13
306.0061872763471
 23
1389.42154079015
 33
0.0
 14
306.0920039282501
 24
916.421543863824
 34
0.0
 50
90.0
100
AcDbRotatedDimension
1001
ACAD
1000
DSTYLE
1002
{
1070
   289
1070
     3
1002
}
  0
LINE
  5
966
330
963
100
AcDbEntity
  8
0
  6
Continuous
100
AcDbLine
 10
306.0061872763471
 20
1465.874129970521
 30
0.0
 11
306.0061872763471
 21
880.1291564612727
 31
0.0
  0
ARC
  5
967
330
963
100
AcDbEntity
  8
0
100
AcDbCircle
 10
1706.006681364106
 20
1156.36518152089
 30
0.0
 40
1601.0
100
AcDbArc
 50
175.4305044827265
 51
184.836957250689
  0
DIMENSION
  5
968
330
963
100
AcDbEntity
  8
0
  6
Continuous
100
AcDbDimension
  2
*D61
 10
866.9918874884226
 20
809.2477851640323
 30
0.0
 11
486.007957011027
 21
817.2487851640322
 31
0.0
 12
1592.514428043934
 22
-425.6315368276373
 32
0.0
 70
    32
 71
     5
 42
-1.0
  3
B
100
AcDbAlignedDimension
 13
105.0240265336314
 23
1148.912736823669
 33
0.0
 14
866.9918874884226
 24
1123.614844650797
 34
0.0
100
AcDbRotatedDimension
1001
ACAD
1000
DSTYLE
1002
{
1070
   289
1070
     3
1002
}
  0
ARC
  5
969
330
963
100
AcDbEntity
  8
0
100
AcDbCircle
 10
-334.0030663248799
 20
1127.096355096448
 30
0.0
 40
1201.0
100
AcDbArc
 50
353.7690114744801
 51
5.898805121284699
  0
MTEXT
  5
96A
330
963
100
AcDbEntity
  8
DIM
100
AcDbMText
 10
415.7313126610023
 20
1095.835855271521
 30
0.0
 40
40.0
 41
200.43
 71
     1
 72
     5
  1
\f@\M+5B7BD\M+5D5FD\M+5CAE6\M+5CCE5|b0|i0|c134|p2;\C3;503
 73
     1
 44
1.0
  0
LINE
  5
96B
330
963
100
AcDbEntity
  8
CENTER
100
AcDbLine
 10
700.7127855121615
 20
1429.556441676236
 30
0.0
 11
700.7127855121615
 21
857.7168910012787
 31
0.0
  0
ARC
  5
96C
330
963
100
AcDbEntity
  8
0
100
AcDbCircle
 10
221.3130517494876
 20
1030.727503327723
 30
0.0
 40
111.0
100
AcDbArc
 50
184.836957250689
 51
265.52923428654
  0
DIMENSION
  5
96D
330
963
100
AcDbEntity
  8
DIM
 62
     1
100
AcDbDimension
  2
*D59
 10
311.2390475006542
 20
804.0543308665471
 30
0.0
 11
266.1612666695472
 21
52.67379826832597
 31
0.0
 12
1592.514428043934
 22
-425.6315368276373
 32
0.0
 70
   164
 71
     5
 42
-1.0
  3
B
100
AcDbRadialDimension
 15
263.0011931535776
 25
0.0000047119117426
 35
0.0
 40
0.0
1001
ACAD
1000
DSTYLE
1002
{
1070
   279
1070
     1
1070
   288
1070
     1
1070
   289
1070
     3
1002
}
  0
DIMENSION
  5
96E
330
963
100
AcDbEntity
  8
DIM
 62
     1
100
AcDbDimension
  2
*D58
 10
711.2390475006501
 20
804.0543308665471
 30
0.0
 11
768.4576100186401
 21
53.50070373813498
 31
0.0
 12
1592.514428043934
 22
-425.6315368276373
 32
0.0
 70
   164
 71
     5
 42
-1.0
  3
B
100
AcDbRadialDimension
 15
772.4687849412129
 25
0.8848784762375885
 35
0.0
 40
0.0
1001
ACAD
1000
DSTYLE
1002
{
1070
   279
1070
     1
1070
   288
1070
     1
1070
   289
1070
     3
1002
}
  0
LINE
  5
96F
330
963
100
AcDbEntity
  8
0
100
AcDbLine
 10
306.0920039282501
 20
916.421543863824
 30
0.0
 11
700.7127855121615
 21
916.421543863824
 31
0.0
  0
DIMENSION
  5
970
330
963
100
AcDbEntity
  8
DIM
100
AcDbDimension
  2
*D60
 10
700.7127855121615
 20
873.6137424653788
 30
0.0
 11
503.3594863955677
 21
881.6147424653788
 31
0.0
 12
1592.514428043934
 22
-425.6315368276373
 32
0.0
 70
    32
 71
     5
 42
-1.0
  3
B
100
AcDbAlignedDimension
 13
306.0061872789738
 23
874.1490877643755
 33
0.0
 14
700.7127855121615
 24
874.1490877643755
 34
0.0
100
AcDbRotatedDimension
1001
ACAD
1000
DSTYLE
1002
{
1070
   289
1070
     3
1002
}
  0
ARC
  5
971
330
963
100
AcDbEntity
  8
0
100
AcDbCircle
 10
306.0061872790066
 20
2113.921540790161
 30
0.0
 40
1197.5
100
AcDbArc
 50
265.5292342865398
 51
270.0041042836541
  0
ARC
  5
972
330
963
100
AcDbEntity
  8
0
100
AcDbCircle
 10
700.9969336751492
 20
1612.421486110027
 30
0.0
 40
696.0
100
AcDbArc
 50
269.9766587943427
 51
276.9947997051622
  0
ARC
  5
973
330
963
100
AcDbEntity
  8
0
100
AcDbCircle
 10
775.4040598026497
 20
1005.969031599827
 30
0.0
 40
85.0
100
AcDbArc
 50
276.9947997051622
 51
353.7690114744801
  0
ARC
  5
974
330
963
100
AcDbEntity
  8
0
100
AcDbCircle
 10
220.7427426407833
 20
1275.07083567469
 30
0.0
 40
111.0
100
AcDbArc
 50
94.50093295754513
 51
175.4305044827263
  0
LINE
  5
975
330
963
100
AcDbEntity
  8
CENTER
100
AcDbLine
 10
53.96332541786978
 20
1148.912736823669
 30
0.0
 11
923.1991255440151
 21
1148.912736823669
 31
0.0
  0
LINE
  5
976
330
963
100
AcDbEntity
  8
0
100
AcDbLine
 10
700.7127855106225
 20
1331.421482953192
 30
0.0
 11
502.7351679066033
 21
1331.421482953192
 31
0.0
  0
ARC
  5
977
330
963
100
AcDbEntity
  8
0
100
AcDbCircle
 10
391.2696319119111
 20
1275.07083567469
 30
0.0
 40
111.0
100
AcDbArc
 50
37.76439677360967
 51
85.49906704245492
  0
ARC
  5
978
330
963
100
AcDbEntity
  8
0
100
AcDbCircle
 10
502.7351679066033
 20
1361.42148295319
 30
0.0
 40
30.0
100
AcDbArc
 50
217.7643967736096
 51
270.0
  0
ARC
  5
979
330
963
100
AcDbEntity
  8
0
100
AcDbCircle
 10
306.0061872763471
 20
191.9215407901502
 30
0.0
 40
1197.5
100
AcDbArc
 50
85.49906704245485
 51
94.50093295754513
  0
ARC
  5
97A
330
963
100
AcDbEntity
  8
0
100
AcDbCircle
 10
700.9969336724824
 20
635.4214861100157
 30
0.0
 40
696.0
100
AcDbArc
 50
82.94061043469007
 51
90.02337471770639
  0
ARC
  5
97B
330
963
100
AcDbEntity
  8
0
100
AcDbCircle
 10
776.0876696989073
 20
1241.789675713502
 30
0.0
 40
85.0
100
AcDbArc
 50
5.898805121284765
 51
82.94061043469012
  0
ENDBLK
  5
97D
330
963
100
AcDbEntity
  8
0
100
AcDbBlockEnd
  0
BLOCK
  5
A15
330
A13
100
AcDbEntity
  8
0
100
AcDbBlockBegin
  2
A$C2EBD4E19
 70
     0
 10
0.0
 20
0.0
 30
0.0
  3
A$C2EBD4E19
  1

  0
MTEXT
  5
A14
330
A13
100
AcDbEntity
  8
DIM
 62
     1
100
AcDbMText
 10
11.37779424251494
 20
280.6806975410963
 30
0.0
 40
200.0
 41
1089.969
 71
     1
 72
     5
  1
\f\M+5CBCE\M+5CCE5|b0|i0|c134|p54;\C4;\M+5B9F6\M+5BAB8
 73
     1
 44
1.0
  0
ENDBLK
  5
A16
330
A13
100
AcDbEntity
  8
0
100
AcDbBlockEnd
  0
BLOCK
  5
A23
330
A19
100
AcDbEntity
  8
0
100
AcDbBlockBegin
  2
*D66
 70
     1
 10
0.0
 20
0.0
 30
0.0
  3
*D66
  1

  0
LINE
  5
A1A
330
A19
100
AcDbEntity
  8
0
  6
ByBlock
 62
     0
100
AcDbLine
 10
940.1596435220254
 20
950.3757915693887
 30
0.0
 11
596.4411545110951
 21
950.3757915693887
 31
0.0
  0
LINE
  5
A1B
330
A19
100
AcDbEntity
  8
0
  6
ByBlock
 62
     0
100
AcDbLine
 10
940.1596435220243
 20
480.3706253079872
 30
0.0
 11
596.4411545110948
 21
480.3706253079872
 31
0.0
  0
LINE
  5
A1C
330
A19
100
AcDbEntity
  8
0
  6
ByBlock
 62
     0
100
AcDbLine
 10
607.8711545110951
 20
935.1357915693887
 30
0.0
 11
607.8711545110949
 21
495.6106253079872
 31
0.0
  0
SOLID
  5
A1D
330
A19
100
AcDbEntity
  8
0
  6
ByBlock
 62
     0
100
AcDbTrace
 10
605.331154511095
 20
935.1357915693887
 30
0.0
 11
610.4111545110951
 21
935.1357915693887
 31
0.0
 12
607.8711545110951
 22
950.3757915693887
 32
0.0
 13
607.8711545110951
 23
950.3757915693887
 33
0.0
  0
SOLID
  5
A1E
330
A19
100
AcDbEntity
  8
0
  6
ByBlock
 62
     0
100
AcDbTrace
 10
605.331154511095
 20
495.6106253079872
 30
0.0
 11
610.4111545110948
 21
495.6106253079872
 31
0.0
 12
607.8711545110949
 22
480.3706253079872
 32
0.0
 13
607.8711545110949
 23
480.3706253079872
 33
0.0
  0
MTEXT
  5
A1F
330
A19
100
AcDbEntity
  8
0
  6
ByBlock
 62
     0
100
AcDbMText
 10
591.475454511095
 20
715.373208438688
 30
0.0
 40
14.47799999999999
 41
0.0
 71
     5
 72
     1
  1
\A1;470.0{\H10.134600;\S+2^ -2;}
 11
0.0000000000000001
 21
1.0
 31
0.0
 73
     1
 44
1.0
  0
POINT
  5
A20
330
A19
100
AcDbEntity
  8
DEFPOINTS
  6
ByBlock
 62
     0
100
AcDbPoint
 10
946.2556435220255
 20
950.3757915693887
 30
0.0
  0
POINT
  5
A21
330
A19
100
AcDbEntity
  8
DEFPOINTS
  6
ByBlock
 62
     0
100
AcDbPoint
 10
946.2556435220243
 20
480.3706253079872
 30
0.0
  0
POINT
  5
A22
330
A19
100
AcDbEntity
  8
DEFPOINTS
  6
ByBlock
 62
     0
100
AcDbPoint
 10
607.8711545110949
 20
480.3706253079872
 30
0.0
  0
ENDBLK
  5
A24
330
A19
100
AcDbEntity
  8
0
100
AcDbBlockEnd
  0
BLOCK
  5
A2F
330
A25
100
AcDbEntity
  8
0
100
AcDbBlockBegin
  2
*D67
 70
     1
 10
0.0
 20
0.0
 30
0.0
  3
*D67
  1

  0
LINE
  5
A26
330
A25
100
AcDbEntity
  8
0
  6
ByBlock
 62
     0
100
AcDbLine
 10
721.2556435220248
 20
659.3246253079874
 30
0.0
 11
721.2556435220248
 21
395.216425298879
 31
0.0
  0
LINE
  5
A27
330
A25
100
AcDbEntity
  8
0
  6
ByBlock
 62
     0
100
AcDbLine
 10
1494.255647628669
 20
669.3293681641087
 30
0.0
 11
1494.255647628669
 21
395.216425298879
 31
0.0
  0
LINE
  5
A28
330
A25
100
AcDbEntity
  8
0
  6
ByBlock
 62
     0
100
AcDbLine
 10
736.4956435220248
 20
406.6464252988787
 30
0.0
 11
1479.015647628669
 21
406.6464252988787
 31
0.0
  0
SOLID
  5
A29
330
A25
100
AcDbEntity
  8
0
  6
ByBlock
 62
     0
100
AcDbTrace
 10
736.4956435220248
 20
409.186425298879
 30
0.0
 11
736.4956435220248
 21
404.1064252988787
 31
0.0
 12
721.2556435220248
 22
406.6464252988787
 32
0.0
 13
721.2556435220248
 23
406.6464252988787
 33
0.0
  0
SOLID
  5
A2A
330
A25
100
AcDbEntity
  8
0
  6
ByBlock
 62
     0
100
AcDbTrace
 10
1479.015647628669
 20
409.186425298879
 30
0.0
 11
1479.015647628669
 21
404.1064252988787
 31
0.0
 12
1494.255647628669
 22
406.6464252988787
 32
0.0
 13
1494.255647628669
 23
406.6464252988787
 33
0.0
  0
MTEXT
  5
A2B
330
A25
100
AcDbEntity
  8
0
  6
ByBlock
 62
     0
100
AcDbMText
 10
1107.755645575347
 20
418.4574252988787
 30
0.0
 40
14.47799999999999
 41
0.0
 71
     5
 72
     1
  1
\A1;773.0
 73
     1
 44
1.0
  0
POINT
  5
A2C
330
A25
100
AcDbEntity
  8
DEFPOINTS
  6
ByBlock
 62
     0
100
AcDbPoint
 10
721.2556435220248
 20
665.4206253079875
 30
0.0
  0
POINT
  5
A2D
330
A25
100
AcDbEntity
  8
DEFPOINTS
  6
ByBlock
 62
     0
100
AcDbPoint
 10
1494.255647628669
 20
675.4253681641086
 30
0.0
  0
POINT
  5
A2E
330
A25
100
AcDbEntity
  8
DEFPOINTS
  6
ByBlock
 62
     0
100
AcDbPoint
 10
1494.255647628669
 20
406.6464252988787
 30
0.0
  0
ENDBLK
  5
A30
330
A25
100
AcDbEntity
  8
0
100
AcDbBlockEnd
  0
BLOCK
  5
A3B
330
A31
100
AcDbEntity
  8
0
100
AcDbBlockBegin
  2
*D68
 70
     1
 10
0.0
 20
0.0
 30
0.0
  3
*D68
  1

  0
LINE
  5
A32
330
A31
100
AcDbEntity
  8
0
  6
ByBlock
 62
     0
100
AcDbLine
 10
1355.352633220495
 20
870.4215215546811
 30
0.0
 11
1567.856838474537
 21
870.4215215546811
 31
0.0
  0
LINE
  5
A33
330
A31
100
AcDbEntity
  8
0
  6
ByBlock
 62
     0
100
AcDbLine
 10
1355.463753123751
 20
480.4206647865481
 30
0.0
 11
1567.856838474537
 21
480.4206647865481
 31
0.0
  0
LINE
  5
A34
330
A31
100
AcDbEntity
  8
0
  6
ByBlock
 62
     0
100
AcDbLine
 10
1556.426838474536
 20
855.1815215546811
 30
0.0
 11
1556.426838474536
 21
495.6606647865481
 31
0.0
  0
SOLID
  5
A35
330
A31
100
AcDbEntity
  8
0
  6
ByBlock
 62
     0
100
AcDbTrace
 10
1553.886838474537
 20
855.1815215546811
 30
0.0
 11
1558.966838474537
 21
855.1815215546811
 31
0.0
 12
1556.426838474536
 22
870.4215215546811
 32
0.0
 13
1556.426838474536
 23
870.4215215546811
 33
0.0
  0
SOLID
  5
A36
330
A31
100
AcDbEntity
  8
0
  6
ByBlock
 62
     0
100
AcDbTrace
 10
1553.886838474537
 20
495.6606647865481
 30
0.0
 11
1558.966838474537
 21
495.6606647865481
 31
0.0
 12
1556.426838474536
 22
480.4206647865481
 32
0.0
 13
1556.426838474536
 23
480.4206647865481
 33
0.0
  0
MTEXT
  5
A37
330
A31
100
AcDbEntity
  8
0
  6
ByBlock
 62
     0
100
AcDbMText
 10
1544.615838474537
 20
675.4210931706146
 30
0.0
 40
14.47799999999999
 41
0.0
 71
     5
 72
     1
  1
\A1;390.0
 11
0.0000000000000001
 21
1.0
 31
0.0
 73
     1
 44
1.0
  0
POINT
  5
A38
330
A31
100
AcDbEntity
  8
DEFPOINTS
  6
ByBlock
 62
     0
100
AcDbPoint
 10
1349.256633220494
 20
870.4215215546811
 30
0.0
  0
POINT
  5
A39
330
A31
100
AcDbEntity
  8
DEFPOINTS
  6
ByBlock
 62
     0
100
AcDbPoint
 10
1349.367753123752
 20
480.4206647865481
 30
0.0
  0
POINT
  5
A3A
330
A31
100
AcDbEntity
  8
DEFPOINTS
  6
ByBlock
 62
     0
100
AcDbPoint
 10
1556.426838474536
 20
480.4206647865481
 30
0.0
  0
ENDBLK
  5
A3C
330
A31
100
AcDbEntity
  8
0
100
AcDbBlockEnd
  0
BLOCK
  5
A50
330
A3D
100
AcDbEntity
  8
0
100
AcDbBlockBegin
  2
A$C02E67ED2
 70
     0
 10
0.0
 20
0.0
 30
0.0
  3
A$C02E67ED2
  1

  0
LINE
  5
A3E
330
A3D
100
AcDbEntity
  8
0
100
AcDbLine
 10
366.6038878684191
 20
85.15419485364326
 30
0.0
 11
769.6101354232296
 21
85.20421537653044
 31
0.0
  0
DIMENSION
  5
A3F
330
A3D
100
AcDbEntity
  8
0
100
AcDbDimension
  2
*D67
 10
914.6038919750639
 20
11.42999484453502
 30
0.0
 11
528.1038899217417
 21
23.24099484453501
 31
0.0
 12
-579.6517556536055
 22
-395.216430454344
 32
0.0
 70
    32
 71
     5
 42
-1.0
  3
B
100
AcDbAlignedDimension
 13
141.6038878684193
 23
270.2041948536436
 33
0.0
 14
914.6038919750639
 24
280.2089377097648
 34
0.0
100
AcDbRotatedDimension
  0
ARC
  5
A40
330
A3D
100
AcDbEntity
  8
0
100
AcDbCircle
 10
366.60388786842
 20
55.15936111504469
 30
0.0
 40
500.0
100
AcDbArc
 50
77.90576918825266
 51
102.0942308117472
  0
DIMENSION
  5
A41
330
A3D
100
AcDbEntity
  8
DIM
100
AcDbDimension
  2
*D66
 10
28.21939885748951
 20
85.15419485364326
 30
0.0
 11
11.82369885748949
 21
320.1567779843442
 31
0.0
 12
-579.6517556536055
 22
-395.216430454344
 32
0.0
 70
    32
 71
     5
 42
-1.0
  3
B
100
AcDbAlignedDimension
 13
366.60388786842
 23
555.1593611150447
 33
0.0
 14
366.6038878684191
 24
85.15419485364326
 34
0.0
 50
90.0
100
AcDbRotatedDimension
1001
ACAD
1000
DSTYLE
1002
{
1070
    47
1040
2.0
1070
    48
1040
2.000000001999997
1070
    71
1070
     1
1070
   146
1040
0.7
1070
   284
1070
     8
1070
   289
1070
     3
1002
}
  0
ARC
  5
A42
330
A3D
100
AcDbEntity
  8
0
  6
Continuous
100
AcDbCircle
 10
5141.60388786842
 20
270.2041948536436
 30
0.0
 40
5000.0
100
AcDbArc
 50
178.4972998456239
 51
181.0878450356235
  0
ARC
  5
A43
330
A3D
100
AcDbEntity
  8
0
  6
Continuous
100
AcDbCircle
 10
232.4888552294209
 20
176.9861905958188
 30
0.0
 40
90.0
100
AcDbArc
 50
181.0878450356233
 51
268.4347899831731
  0
ARC
  5
A44
330
A3D
100
AcDbEntity
  8
0
  6
Continuous
100
AcDbCircle
 10
366.6038878684199
 20
5085.154194853643
 30
0.0
 40
5000.0
100
AcDbArc
 50
268.4347899831744
 51
270.0142229300569
  0
ARC
  5
A45
330
A3D
100
AcDbEntity
  8
0
100
AcDbCircle
 10
293.2718502271029
 20
397.390879615858
 30
0.0
 40
150.0
100
AcDbArc
 50
102.0942308117472
 51
178.4972998456235
  0
LINE
  5
A46
330
A3D
100
AcDbEntity
  8
0
100
AcDbLine
 10
769.6048775668899
 20
475.2050911003372
 30
0.0
 11
584.0750798085601
 21
475.2050911003372
 31
0.0
  0
MTEXT
  5
A47
330
A3D
100
AcDbEntity
  8
0
100
AcDbMText
 10
458.3002352917465
 20
179.1203078819816
 30
0.0
 40
30.0
 41
227.6635999999999
 71
     1
 72
     5
  1
3221A
 73
     1
 44
1.0
  0
ARC
  5
A48
330
A3D
100
AcDbEntity
  8
0
100
AcDbCircle
 10
439.9359255097372
 20
397.390879615858
 30
0.0
 40
150.0
100
AcDbArc
 50
36.79601045496904
 51
77.90576918825269
  0
ARC
  5
A49
330
A3D
100
AcDbEntity
  8
0
100
AcDbCircle
 10
584.0750798085601
 20
505.2050911003375
 30
0.0
 40
30.0
100
AcDbArc
 50
216.7960104549691
 51
270.0
  0
DIMENSION
  5
A4A
330
A3D
100
AcDbEntity
  8
0
100
AcDbDimension
  2
*D68
 10
976.7750828209319
 20
85.2042343322042
 30
0.0
 11
964.9640828209321
 21
280.2046627162707
 31
0.0
 12
-579.6517556536055
 22
-395.216430454344
 32
0.0
 70
    32
 71
     5
 42
-1.0
  3
B
100
AcDbAlignedDimension
 13
769.6048775668899
 23
475.2050911003372
 33
0.0
 14
769.715997470146
 24
85.20423433220424
 34
0.0
 50
90.0
100
AcDbRotatedDimension
  0
ARC
  5
A4B
330
A3D
100
AcDbEntity
  8
0
100
AcDbCircle
 10
-585.3960877887796
 20
280.4553285945406
 30
0.0
 40
1500.0
100
AcDbArc
 50
355.3632624412297
 51
4.616417930911586
  0
ARC
  5
A4C
330
A3D
100
AcDbEntity
  8
0
100
AcDbCircle
 10
834.9402444607243
 20
165.2611304245515
 30
0.0
 40
75.0
100
AcDbArc
 50
278.8474398720405
 51
355.3632624412299
  0
ARC
  5
A4D
330
A3D
100
AcDbEntity
  8
0
100
AcDbCircle
 10
769.5735363744619
 20
585.2042140370399
 30
0.0
 40
500.0
100
AcDbArc
 50
270.0041939419941
 51
278.8474398720405
  0
ARC
  5
A4E
330
A3D
100
AcDbEntity
  8
0
100
AcDbCircle
 10
834.9810081184516
 20
395.1458051919424
 30
0.0
 40
75.0
100
AcDbArc
 50
4.616417930911594
 51
81.15048338780525
  0
ARC
  5
A4F
330
A3D
100
AcDbEntity
  8
0
100
AcDbCircle
 10
769.5990788376924
 20
-24.79490886603731
 30
0.0
 40
500.0
100
AcDbArc
 50
81.15048338780528
 51
90.00066448508937
  0
ENDBLK
  5
A51
330
A3D
100
AcDbEntity
  8
0
100
AcDbBlockEnd
  0
BLOCK
  5
A65
330
A5B
100
AcDbEntity
  8
0
100
AcDbBlockBegin
  2
*D70
 70
     1
 10
0.0
 20
0.0
 30
0.0
  3
*D70
  1

  0
LINE
  5
A5C
330
A5B
100
AcDbEntity
  8
0
  6
ByBlock
 62
     0
100
AcDbLine
 10
15312.9216637026
 20
-13751.32373837238
 30
0.0
 11
15340.7445769849
 21
-13751.32373837238
 31
0.0
  0
LINE
  5
A5D
330
A5B
100
AcDbEntity
  8
0
  6
ByBlock
 62
     0
100
AcDbLine
 10
15312.9216637026
 20
-13697.2908496384
 30
0.0
 11
15340.7445769849
 21
-13697.2908496384
 31
0.0
  0
LINE
  5
A5E
330
A5B
100
AcDbEntity
  8
0
  6
ByBlock
 62
     0
100
AcDbLine
 10
15333.1245769849
 20
-13739.89373837239
 30
0.0
 11
15333.1245769849
 21
-13708.7208496384
 31
0.0
  0
SOLID
  5
A5F
330
A5B
100
AcDbEntity
  8
0
  6
ByBlock
 62
     0
100
AcDbTrace
 10
15331.2195769849
 20
-13739.89373837239
 30
0.0
 11
15335.02957698489
 21
-13739.89373837239
 31
0.0
 12
15333.1245769849
 22
-13751.32373837238
 32
0.0
 13
15333.1245769849
 23
-13751.32373837238
 33
0.0
  0
SOLID
  5
A60
330
A5B
100
AcDbEntity
  8
0
  6
ByBlock
 62
     0
100
AcDbTrace
 10
15331.2195769849
 20
-13708.7208496384
 30
0.0
 11
15335.02957698489
 21
-13708.7208496384
 31
0.0
 12
15333.1245769849
 22
-13697.2908496384
 32
0.0
 13
15333.1245769849
 23
-13697.2908496384
 33
0.0
  0
MTEXT
  5
A61
330
A5B
100
AcDbEntity
  8
0
  6
ByBlock
 62
     0
100
AcDbMText
 10
15325.1235769849
 20
-13724.30729400539
 30
0.0
 40
11.43
 41
0.0
 71
     5
 72
     1
  1
\A1;54.0
 11
0.0000000000000001
 21
1.0
 31
0.0
 73
     1
 44
1.0
  0
POINT
  5
A62
330
A5B
100
AcDbEntity
  8
DEFPOINTS
  6
ByBlock
 62
     0
100
AcDbPoint
 10
15310.54041370261
 20
-13751.32373837238
 30
0.0
  0
POINT
  5
A63
330
A5B
100
AcDbEntity
  8
DEFPOINTS
  6
ByBlock
 62
     0
100
AcDbPoint
 10
15310.54041370261
 20
-13697.2908496384
 30
0.0
  0
POINT
  5
A64
330
A5B
100
AcDbEntity
  8
DEFPOINTS
  6
ByBlock
 62
     0
100
AcDbPoint
 10
15333.1245769849
 20
-13697.2908496384
 30
0.0
  0
ENDBLK
  5
A66
330
A5B
100
AcDbEntity
  8
0
100
AcDbBlockEnd
  0
BLOCK
  5
A71
330
A67
100
AcDbEntity
  8
0
100
AcDbBlockBegin
  2
*D71
 70
     1
 10
0.0
 20
0.0
 30
0.0
  3
*D71
  1

  0
LINE
  5
A68
330
A67
100
AcDbEntity
  8
0
  6
ByBlock
 62
     0
100
AcDbLine
 10
14705.42005188563
 20
-13697.2908496384
 30
0.0
 11
14675.83397712086
 21
-13697.2908496384
 31
0.0
  0
LINE
  5
A69
330
A67
100
AcDbEntity
  8
0
  6
ByBlock
 62
     0
100
AcDbLine
 10
14705.42005188563
 20
-13757.2908496384
 30
0.0
 11
14675.83397712086
 21
-13757.2908496384
 31
0.0
  0
LINE
  5
A6A
330
A67
100
AcDbEntity
  8
0
  6
ByBlock
 62
     0
100
AcDbLine
 10
14683.45397712086
 20
-13708.7208496384
 30
0.0
 11
14683.45397712086
 21
-13745.8608496384
 31
0.0
  0
SOLID
  5
A6B
330
A67
100
AcDbEntity
  8
0
  6
ByBlock
 62
     0
100
AcDbTrace
 10
14681.54897712085
 20
-13708.7208496384
 30
0.0
 11
14685.35897712086
 21
-13708.7208496384
 31
0.0
 12
14683.45397712086
 22
-13697.2908496384
 32
0.0
 13
14683.45397712086
 23
-13697.2908496384
 33
0.0
  0
SOLID
  5
A6C
330
A67
100
AcDbEntity
  8
0
  6
ByBlock
 62
     0
100
AcDbTrace
 10
14681.54897712085
 20
-13745.8608496384
 30
0.0
 11
14685.35897712086
 21
-13745.8608496384
 31
0.0
 12
14683.45397712086
 22
-13757.2908496384
 32
0.0
 13
14683.45397712086
 23
-13757.2908496384
 33
0.0
  0
MTEXT
  5
A6D
330
A67
100
AcDbEntity
  8
0
  6
ByBlock
 62
     0
100
AcDbMText
 10
14675.45297712085
 20
-13727.2908496384
 30
0.0
 40
11.43
 41
0.0
 71
     5
 72
     1
  1
\A1;60.0
 11
0.0000000000000001
 21
1.0
 31
0.0
 73
     1
 44
1.0
  0
POINT
  5
A6E
330
A67
100
AcDbEntity
  8
DEFPOINTS
  6
ByBlock
 62
     0
100
AcDbPoint
 10
14707.80130188563
 20
-13697.2908496384
 30
0.0
  0
POINT
  5
A6F
330
A67
100
AcDbEntity
  8
DEFPOINTS
  6
ByBlock
 62
     0
100
AcDbPoint
 10
14707.80130188563
 20
-13757.2908496384
 30
0.0
  0
POINT
  5
A70
330
A67
100
AcDbEntity
  8
DEFPOINTS
  6
ByBlock
 62
     0
100
AcDbPoint
 10
14683.45397712086
 20
-13757.2908496384
 30
0.0
  0
ENDBLK
  5
A72
330
A67
100
AcDbEntity
  8
0
100
AcDbBlockEnd
  0
BLOCK
  5
A7D
330
A73
100
AcDbEntity
  8
0
100
AcDbBlockBegin
  2
*D72
 70
     1
 10
0.0
 20
0.0
 30
0.0
  3
*D72
  1

  0
LINE
  5
A74
330
A73
100
AcDbEntity
  8
0
  6
ByBlock
 62
     0
100
AcDbLine
 10
15147.0558766504
 20
-13565.32373837239
 30
0.0
 11
15415.74755662084
 21
-13565.32373837239
 31
0.0
  0
LINE
  5
A75
330
A73
100
AcDbEntity
  8
0
  6
ByBlock
 62
     0
100
AcDbLine
 10
15147.02957021599
 20
-13937.29050356427
 30
0.0
 11
15415.74755662084
 21
-13937.29050356427
 31
0.0
  0
LINE
  5
A76
330
A73
100
AcDbEntity
  8
0
  6
ByBlock
 62
     0
100
AcDbLine
 10
15408.12755662084
 20
-13576.75373837239
 30
0.0
 11
15408.12755662084
 21
-13925.86050356427
 31
0.0
  0
SOLID
  5
A77
330
A73
100
AcDbEntity
  8
0
  6
ByBlock
 62
     0
100
AcDbTrace
 10
15406.22255662084
 20
-13576.75373837239
 30
0.0
 11
15410.03255662084
 21
-13576.75373837239
 31
0.0
 12
15408.12755662084
 22
-13565.32373837239
 32
0.0
 13
15408.12755662084
 23
-13565.32373837239
 33
0.0
  0
SOLID
  5
A78
330
A73
100
AcDbEntity
  8
0
  6
ByBlock
 62
     0
100
AcDbTrace
 10
15406.22255662084
 20
-13925.86050356427
 30
0.0
 11
15410.03255662084
 21
-13925.86050356427
 31
0.0
 12
15408.12755662084
 22
-13937.29050356427
 32
0.0
 13
15408.12755662084
 23
-13937.29050356427
 33
0.0
  0
MTEXT
  5
A79
330
A73
100
AcDbEntity
  8
0
  6
ByBlock
 62
     0
100
AcDbMText
 10
15400.12655662084
 20
-13751.30712096833
 30
0.0
 40
11.43
 41
0.0
 71
     5
 72
     1
  1
\A1;372.0
 11
0.0000000000000001
 21
1.0
 31
0.0
 73
     1
 44
1.0
  0
POINT
  5
A7A
330
A73
100
AcDbEntity
  8
DEFPOINTS
  6
ByBlock
 62
     0
100
AcDbPoint
 10
15144.6746266504
 20
-13565.32373837239
 30
0.0
  0
POINT
  5
A7B
330
A73
100
AcDbEntity
  8
DEFPOINTS
  6
ByBlock
 62
     0
100
AcDbPoint
 10
15144.64832021599
 20
-13937.29050356427
 30
0.0
  0
POINT
  5
A7C
330
A73
100
AcDbEntity
  8
DEFPOINTS
  6
ByBlock
 62
     0
100
AcDbPoint
 10
15408.12755662084
 20
-13937.29050356427
 30
0.0
  0
ENDBLK
  5
A7E
330
A73
100
AcDbEntity
  8
0
100
AcDbBlockEnd
  0
BLOCK
  5
A89
330
A7F
100
AcDbEntity
  8
0
100
AcDbBlockBegin
  2
*D73
 70
     1
 10
0.0
 20
0.0
 30
0.0
  3
*D73
  1

  0
LINE
  5
A80
330
A7F
100
AcDbEntity
  8
0
  6
ByBlock
 62
     0
100
AcDbLine
 10
14747.2933766504
 20
-13457.7908496384
 30
0.0
 11
14339.31725127259
 21
-13457.7908496384
 31
0.0
  0
LINE
  5
A81
330
A7F
100
AcDbEntity
  8
0
  6
ByBlock
 62
     0
100
AcDbLine
 10
14747.2933766504
 20
-13936.7908496384
 30
0.0
 11
14339.31725127259
 21
-13936.7908496384
 31
0.0
  0
LINE
  5
A82
330
A7F
100
AcDbEntity
  8
0
  6
ByBlock
 62
     0
100
AcDbLine
 10
14346.93725127259
 20
-13469.22084963839
 30
0.0
 11
14346.93725127259
 21
-13925.3608496384
 31
0.0
  0
SOLID
  5
A83
330
A7F
100
AcDbEntity
  8
0
  6
ByBlock
 62
     0
100
AcDbTrace
 10
14345.03225127259
 20
-13469.22084963839
 30
0.0
 11
14348.84225127259
 21
-13469.22084963839
 31
0.0
 12
14346.93725127259
 22
-13457.7908496384
 32
0.0
 13
14346.93725127259
 23
-13457.7908496384
 33
0.0
  0
SOLID
  5
A84
330
A7F
100
AcDbEntity
  8
0
  6
ByBlock
 62
     0
100
AcDbTrace
 10
14345.03225127259
 20
-13925.3608496384
 30
0.0
 11
14348.84225127259
 21
-13925.3608496384
 31
0.0
 12
14346.93725127259
 22
-13936.7908496384
 32
0.0
 13
14346.93725127259
 23
-13936.7908496384
 33
0.0
  0
MTEXT
  5
A85
330
A7F
100
AcDbEntity
  8
0
  6
ByBlock
 62
     0
100
AcDbMText
 10
14338.9362512726
 20
-13697.2908496384
 30
0.0
 40
11.43
 41
0.0
 71
     5
 72
     1
  1
\A1;479.0
 11
0.0000000000000001
 21
1.0
 31
0.0
 73
     1
 44
1.0
  0
POINT
  5
A86
330
A7F
100
AcDbEntity
  8
DEFPOINTS
  6
ByBlock
 62
     0
100
AcDbPoint
 10
14749.67462665039
 20
-13457.7908496384
 30
0.0
  0
POINT
  5
A87
330
A7F
100
AcDbEntity
  8
DEFPOINTS
  6
ByBlock
 62
     0
100
AcDbPoint
 10
14749.67462665039
 20
-13936.7908496384
 30
0.0
  0
POINT
  5
A88
330
A7F
100
AcDbEntity
  8
DEFPOINTS
  6
ByBlock
 62
     0
100
AcDbPoint
 10
14346.93725127259
 20
-13936.7908496384
 30
0.0
  0
ENDBLK
  5
A8A
330
A7F
100
AcDbEntity
  8
0
100
AcDbBlockEnd
  0
BLOCK
  5
A95
330
A8B
100
AcDbEntity
  8
0
100
AcDbBlockBegin
  2
*D74
 70
     1
 10
0.0
 20
0.0
 30
0.0
  3
*D74
  1

  0
LINE
  5
A8C
330
A8B
100
AcDbEntity
  8
0
  6
ByBlock
 62
     0
100
AcDbLine
 10
14475.1746266504
 20
-13759.6720996384
 30
0.0
 11
14475.1746266504
 21
-14037.09713993112
 31
0.0
  0
LINE
  5
A8D
330
A8B
100
AcDbEntity
  8
0
  6
ByBlock
 62
     0
100
AcDbLine
 10
15243.17462665039
 20
-13753.20498837239
 30
0.0
 11
15243.17462665039
 21
-14037.09713993112
 31
0.0
  0
LINE
  5
A8E
330
A8B
100
AcDbEntity
  8
0
  6
ByBlock
 62
     0
100
AcDbLine
 10
14486.6046266504
 20
-14029.47713993113
 30
0.0
 11
15231.7446266504
 21
-14029.47713993113
 31
0.0
  0
SOLID
  5
A8F
330
A8B
100
AcDbEntity
  8
0
  6
ByBlock
 62
     0
100
AcDbTrace
 10
14486.6046266504
 20
-14027.57213993113
 30
0.0
 11
14486.6046266504
 21
-14031.38213993113
 31
0.0
 12
14475.1746266504
 22
-14029.47713993113
 32
0.0
 13
14475.1746266504
 23
-14029.47713993113
 33
0.0
  0
SOLID
  5
A90
330
A8B
100
AcDbEntity
  8
0
  6
ByBlock
 62
     0
100
AcDbTrace
 10
15231.7446266504
 20
-14027.57213993113
 30
0.0
 11
15231.7446266504
 21
-14031.38213993113
 31
0.0
 12
15243.17462665039
 22
-14029.47713993113
 32
0.0
 13
15243.17462665039
 23
-14029.47713993113
 33
0.0
  0
MTEXT
  5
A91
330
A8B
100
AcDbEntity
  8
0
  6
ByBlock
 62
     0
100
AcDbMText
 10
14859.17462665039
 20
-14021.47613993113
 30
0.0
 40
11.43
 41
0.0
 71
     5
 72
     1
  1
\A1;768.0
 73
     1
 44
1.0
  0
POINT
  5
A92
330
A8B
100
AcDbEntity
  8
DEFPOINTS
  6
ByBlock
 62
     0
100
AcDbPoint
 10
14475.1746266504
 20
-13757.2908496384
 30
0.0
  0
POINT
  5
A93
330
A8B
100
AcDbEntity
  8
DEFPOINTS
  6
ByBlock
 62
     0
100
AcDbPoint
 10
15243.17462665039
 20
-13750.82373837239
 30
0.0
  0
POINT
  5
A94
330
A8B
100
AcDbEntity
  8
DEFPOINTS
  6
ByBlock
 62
     0
100
AcDbPoint
 10
15243.17462665039
 20
-14029.47713993113
 30
0.0
  0
ENDBLK
  5
A96
330
A8B
100
AcDbEntity
  8
0
100
AcDbBlockEnd
  0
BLOCK
  5
AAF
330
A97
100
AcDbEntity
  8
0
100
AcDbBlockBegin
  2
A$C607769D7
 70
     0
 10
0.0
 20
0.0
 30
0.0
  3
A$C607769D7
  1

  0
DIMENSION
  5
A98
330
A97
100
AcDbEntity
  8
DIM
 62
     1
100
AcDbDimension
  2
*D74
 10
911.453358883871
 20
7.619988018836012
 30
0.0
 11
527.4533588838711
 21
15.62098801883621
 31
0.0
 12
-14331.72126776653
 22
14037.09712794997
 32
0.0
 70
    32
 71
     5
 42
-1.0
  3
B
100
AcDbAlignedDimension
 13
143.453358883873
 23
279.8062783115673
 33
0.0
 14
911.453358883871
 24
286.2733895775837
 34
0.0
100
AcDbRotatedDimension
1001
ACAD
1000
DSTYLE
1002
{
1070
   279
1070
     1
1070
   289
1070
     3
1002
}
  0
ARC
  5
A99
330
A97
100
AcDbEntity
  8
0
  6
Continuous
100
AcDbCircle
 10
350.6832515704937
 20
376.6389086883954
 30
0.0
 40
200.4999999999999
100
AcDbArc
 50
93.77485198031422
 51
172.048643202913
  0
ARC
  5
A9A
330
A97
100
AcDbEntity
  8
0
  6
Continuous
100
AcDbCircle
 10
247.1493471188515
 20
208.3684253541214
 30
0.0
 40
100.5
100
AcDbArc
 50
185.1231835062525
 51
264.8850436516078
  0
DIMENSION
  5
A9B
330
A97
100
AcDbEntity
  8
DIM
 62
     1
100
AcDbDimension
  2
*D73
 10
13.71598350606655
 20
100.3062783115673
 30
0.0
 11
5.714983506066346
 21
339.8062783115674
 31
0.0
 12
-14333.22126776653
 22
14037.09712794997
 32
0.0
 70
    32
 71
     5
 42
-1.0
  3
B
100
AcDbAlignedDimension
 13
416.4533588838731
 23
579.3062783115674
 33
0.0
 14
416.4533588838731
 24
100.3062783115673
 34
0.0
 50
90.0
100
AcDbRotatedDimension
1001
ACAD
1000
DSTYLE
1002
{
1070
   279
1070
     1
1070
   289
1070
     3
1002
}
  0
LINE
  5
A9C
330
A97
100
AcDbEntity
  8
CENTER
100
AcDbLine
 10
989.3584189136907
 20
339.8062783115674
 30
0.0
 11
73.94685238152124
 21
339.8062783115674
 31
0.0
  0
LINE
  5
A9D
330
A97
100
AcDbEntity
  8
CENTER
100
AcDbLine
 10
67.42800465480105
 20
279.8062783115673
 30
0.0
 11
705.7429446916613
 21
279.8062783115673
 31
0.0
  0
ARC
  5
A9E
330
A97
100
AcDbEntity
  8
0
  6
Continuous
100
AcDbCircle
 10
1043.953358883873
 20
279.8062783115673
 30
0.0
 40
900.5
100
AcDbArc
 50
172.048643202913
 51
185.1231835062525
  0
LINE
  5
A9F
330
A97
100
AcDbEntity
  8
0
  6
Continuous
100
AcDbLine
 10
911.453358883871
 20
191.2733895775834
 30
0.0
 11
911.453358883871
 21
381.2733895775837
 31
0.0
  0
DIMENSION
  5
AA0
330
A97
100
AcDbEntity
  8
DIM
 62
     1
100
AcDbDimension
  2
*D72
 10
1076.406288854311
 20
100.3066243856973
 30
0.0
 11
1068.405288854312
 21
286.2900069816404
 31
0.0
 12
-14331.72126776653
 22
14037.59712794997
 32
0.0
 70
    32
 71
     5
 42
-1.0
  3
B
100
AcDbAlignedDimension
 13
812.9533588838732
 23
472.2733895775836
 33
0.0
 14
812.9270524494623
 24
100.3066243856973
 34
0.0
 50
90.0
100
AcDbRotatedDimension
1001
ACAD
1000
DSTYLE
1002
{
1070
   279
1070
     1
1070
   289
1070
     3
1002
}
  0
DIMENSION
  5
AA1
330
A97
100
AcDbEntity
  8
DIM
  6
Continuous
100
AcDbDimension
  2
*D70
 10
1001.403309218374
 20
339.8062783115674
 30
0.0
 11
993.4023092183743
 21
312.7898339445764
 31
0.0
 12
-14331.72126776653
 22
14037.09712794997
 32
0.0
 70
    32
 71
     5
 42
-1.0
  3
B
100
AcDbAlignedDimension
 13
978.8191459360824
 23
285.7733895775837
 33
0.0
 14
978.8191459360824
 24
339.8062783115674
 34
0.0
 50
90.0
100
AcDbRotatedDimension
1001
ACAD
1000
DSTYLE
1002
{
1070
    47
1040
2.0
1070
    48
1040
2.0
1070
   146
1040
0.7
1070
   284
1070
     8
1070
   289
1070
     3
1002
}
  0
LINE
  5
AA2
330
A97
100
AcDbEntity
  8
CENTER
100
AcDbLine
 10
416.4533588838731
 20
631.195772427396
 30
0.0
 11
416.4533588838731
 21
65.58957588699922
 31
0.0
  0
DIMENSION
  5
AA3
330
A97
100
AcDbEntity
  8
DIM
  6
Continuous
100
AcDbDimension
  2
*D71
 10
350.2327093543353
 20
279.8062783115673
 30
0.0
 11
342.2317093543351
 21
309.8062783115675
 31
0.0
 12
-14333.22126776653
 22
14037.09712794997
 32
0.0
 70
    32
 71
     5
 42
-1.0
  3
B
100
AcDbAlignedDimension
 13
374.5800341191024
 23
339.8062783115674
 33
0.0
 14
374.5800341191024
 24
279.8062783115673
 34
0.0
 50
90.0
100
AcDbRotatedDimension
  0
LINE
  5
AA4
330
A97
100
AcDbEntity
  8
CENTER
100
AcDbLine
 10
812.9533588838732
 20
84.65047444833908
 30
0.0
 11
812.9533588838732
 21
488.357232433298
 31
0.0
  0
LINE
  5
AA5
330
A97
100
AcDbEntity
  8
CENTER
100
AcDbLine
 10
720.4533588838711
 20
286.2733895775837
 30
0.0
 11
978.8191459360824
 21
286.2733895775837
 31
0.0
  0
ARC
  5
AA6
330
A97
100
AcDbEntity
  8
0
  6
Continuous
100
AcDbCircle
 10
815.4533588838713
 20
196.3071733613668
 30
0.0
 40
96.0337837837838
100
AcDbArc
 50
268.4925784369613
 51
358.4722030781401
  0
LINE
  5
AA7
330
A97
100
AcDbEntity
  8
0
  6
Continuous
100
AcDbLine
 10
416.4533588838731
 20
100.3062783115673
 30
0.0
 11
817.9533588838712
 21
100.3062783115673
 31
0.0
  0
MTEXT
  5
AA8
330
A97
100
AcDbEntity
  8
DIM
 62
     1
100
AcDbMText
 10
472.4800368211798
 20
246.3894514723725
 30
0.0
 40
50.0
 41
280.2888999999999
 71
     1
 72
     5
  1
\f\M+5CBCE\M+5CCE5|b0|i0|c134|p2;3221B
 73
     1
 44
1.0
  0
ARC
  5
AA9
330
A97
100
AcDbEntity
  8
0
  6
Continuous
100
AcDbCircle
 10
416.4533588838731
 20
2099.806278311568
 30
0.0
 40
1999.5
100
AcDbArc
 50
264.885043651608
 51
270.0
  0
ARC
  5
AAA
330
A97
100
AcDbEntity
  8
0
  6
Continuous
100
AcDbCircle
 10
815.4533588838713
 20
376.2396057938004
 30
0.0
 40
96.0337837837838
100
AcDbArc
 50
1.527796921859966
 51
90.0
  0
ARC
  5
AAB
330
A97
100
AcDbEntity
  8
0
  6
Continuous
100
AcDbCircle
 10
482.2234661972522
 20
376.6389086883954
 30
0.0
 40
200.4999999999999
100
AcDbArc
 50
33.02821568570931
 51
86.22514801968549
  0
ARC
  5
AAC
330
A97
100
AcDbEntity
  8
0
100
AcDbCircle
 10
416.453358883871
 20
-620.1937216884324
 30
0.0
 40
1199.5
100
AcDbArc
 50
86.22514801968554
 51
93.77485198031424
  0
ARC
  5
AAD
330
A97
100
AcDbEntity
  8
0
  6
Continuous
100
AcDbCircle
 10
675.4751860128963
 20
502.2733895775836
 30
0.0
 40
30.0
100
AcDbArc
 50
213.0282156857094
 51
269.9999999999964
  0
LINE
  5
AAE
330
A97
100
AcDbEntity
  8
0
  6
Continuous
100
AcDbLine
 10
815.4533588838713
 20
472.2733895775836
 30
0.0
 11
675.4751860128942
 21
472.2733895775836
 31
0.0
  0
ENDBLK
  5
AB0
330
A97
100
AcDbEntity
  8
0
100
AcDbBlockEnd
  0
BLOCK
  5
DC1
330
DB7
100
AcDbEntity
  8
0
100
AcDbBlockBegin
  2
*D76
 70
     1
 10
0.0
 20
0.0
 30
0.0
  3
*D76
  1

  0
LINE
  5
DB8
330
DB7
100
AcDbEntity
  8
0
  6
ByBlock
 62
     0
100
AcDbLine
 10
2238.901710156521
 20
1610.237100885179
 30
0.0
 11
2238.901710156521
 21
1248.727949464333
 31
0.0
  0
LINE
  5
DB9
330
DB7
100
AcDbEntity
  8
0
  6
ByBlock
 62
     0
100
AcDbLine
 10
3001.87517395554
 20
1586.035381316287
 30
0.0
 11
3001.87517395554
 21
1248.727949464333
 31
0.0
  0
LINE
  5
DBA
330
DB7
100
AcDbEntity
  8
0
  6
ByBlock
 62
     0
100
AcDbLine
 10
2258.90171015652
 20
1258.727949464333
 30
0.0
 11
2981.87517395554
 21
1258.727949464333
 31
0.0
  0
SOLID
  5
DBB
330
DB7
100
AcDbEntity
  8
0
  6
ByBlock
 62
     0
100
AcDbTrace
 10
2258.90171015652
 20
1262.061282797667
 30
0.0
 11
2258.90171015652
 21
1255.394616131
 31
0.0
 12
2238.901710156521
 22
1258.727949464333
 32
0.0
 13
2238.901710156521
 23
1258.727949464333
 33
0.0
  0
SOLID
  5
DBC
330
DB7
100
AcDbEntity
  8
0
  6
ByBlock
 62
     0
100
AcDbTrace
 10
2981.87517395554
 20
1262.061282797667
 30
0.0
 11
2981.87517395554
 21
1255.394616131
 31
0.0
 12
3001.87517395554
 22
1258.727949464333
 32
0.0
 13
3001.87517395554
 23
1258.727949464333
 33
0.0
  0
MTEXT
  5
DBD
330
DB7
100
AcDbEntity
  8
0
  6
ByBlock
 62
     0
100
AcDbMText
 10
2620.388442056031
 20
1273.727949464333
 30
0.0
 40
20.0
 41
0.0
 71
     5
 72
     1
  1
\A1;763
 73
     1
 44
1.0
  0
POINT
  5
DBE
330
DB7
100
AcDbEntity
  8
DEFPOINTS
  6
ByBlock
 62
     0
100
AcDbPoint
 10
2238.901710156521
 20
1615.237100885179
 30
0.0
  0
POINT
  5
DBF
330
DB7
100
AcDbEntity
  8
DEFPOINTS
  6
ByBlock
 62
     0
100
AcDbPoint
 10
3001.87517395554
 20
1591.035381316286
 30
0.0
  0
POINT
  5
DC0
330
DB7
100
AcDbEntity
  8
DEFPOINTS
  6
ByBlock
 62
     0
100
AcDbPoint
 10
3001.87517395554
 20
1258.727949464333
 30
0.0
  0
ENDBLK
  5
DC2
330
DB7
100
AcDbEntity
  8
0
100
AcDbBlockEnd
  0
BLOCK
  5
DCD
330
DC3
100
AcDbEntity
  8
0
100
AcDbBlockBegin
  2
*D77
 70
     1
 10
0.0
 20
0.0
 30
0.0
  3
*D77
  1

  0
LINE
  5
DC4
330
DC3
100
AcDbEntity
  8
0
  6
ByBlock
 62
     0
100
AcDbLine
 10
2840.378760345037
 20
1381.796169158846
 30
0.0
 11
3139.194826343886
 21
1381.796169158846
 31
0.0
  0
LINE
  5
DC5
330
DC3
100
AcDbEntity
  8
0
  6
ByBlock
 62
     0
100
AcDbLine
 10
2840.378760345037
 20
1800.796687158846
 30
0.0
 11
3139.194826343886
 21
1800.796687158846
 31
0.0
  0
LINE
  5
DC6
330
DC3
100
AcDbEntity
  8
0
  6
ByBlock
 62
     0
100
AcDbLine
 10
3129.194826343886
 20
1401.796169158846
 30
0.0
 11
3129.194826343886
 21
1780.796687158846
 31
0.0
  0
SOLID
  5
DC7
330
DC3
100
AcDbEntity
  8
0
  6
ByBlock
 62
     0
100
AcDbTrace
 10
3125.861493010554
 20
1401.796169158846
 30
0.0
 11
3132.52815967722
 21
1401.796169158846
 31
0.0
 12
3129.194826343886
 22
1381.796169158846
 32
0.0
 13
3129.194826343886
 23
1381.796169158846
 33
0.0
  0
SOLID
  5
DC8
330
DC3
100
AcDbEntity
  8
0
  6
ByBlock
 62
     0
100
AcDbTrace
 10
3125.861493010554
 20
1780.796687158846
 30
0.0
 11
3132.52815967722
 21
1780.796687158846
 31
0.0
 12
3129.194826343886
 22
1800.796687158846
 32
0.0
 13
3129.194826343886
 23
1800.796687158846
 33
0.0
  0
MTEXT
  5
DC9
330
DC3
100
AcDbEntity
  8
0
  6
ByBlock
 62
     0
100
AcDbMText
 10
3114.194826343887
 20
1591.296428158846
 30
0.0
 40
20.0
 41
0.0
 71
     5
 72
     1
  1
\A1;419
 11
0.0000000000000001
 21
1.0
 31
0.0
 73
     1
 44
1.0
  0
POINT
  5
DCA
330
DC3
100
AcDbEntity
  8
DEFPOINTS
  6
ByBlock
 62
     0
100
AcDbPoint
 10
2835.378760345037
 20
1381.796169158846
 30
0.0
  0
POINT
  5
DCB
330
DC3
100
AcDbEntity
  8
DEFPOINTS
  6
ByBlock
 62
     0
100
AcDbPoint
 10
2835.378760345037
 20
1800.796687158846
 30
0.0
  0
POINT
  5
DCC
330
DC3
100
AcDbEntity
  8
DEFPOINTS
  6
ByBlock
 62
     0
100
AcDbPoint
 10
3129.194826343886
 20
1800.796687158846
 30
0.0
  0
ENDBLK
  5
DCE
330
DC3
100
AcDbEntity
  8
0
100
AcDbBlockEnd
  0
BLOCK
  5
DD9
330
DCF
100
AcDbEntity
  8
0
100
AcDbBlockBegin
  2
*D78
 70
     1
 10
0.0
 20
0.0
 30
0.0
  3
*D78
  1

  0
LINE
  5
DD0
330
DCF
100
AcDbEntity
  8
0
  6
ByBlock
 62
     0
100
AcDbLine
 10
2435.388014345042
 20
1854.796169158846
 30
0.0
 11
2144.658483164882
 21
1854.796169158846
 31
0.0
  0
LINE
  5
DD1
330
DCF
100
AcDbEntity
  8
0
  6
ByBlock
 62
     0
100
AcDbLine
 10
2435.388014345044
 20
1381.796169158846
 30
0.0
 11
2144.658483164882
 21
1381.796169158846
 31
0.0
  0
LINE
  5
DD2
330
DCF
100
AcDbEntity
  8
0
  6
ByBlock
 62
     0
100
AcDbLine
 10
2154.658483164883
 20
1834.796169158846
 30
0.0
 11
2154.658483164883
 21
1401.796169158846
 31
0.0
  0
SOLID
  5
DD3
330
DCF
100
AcDbEntity
  8
0
  6
ByBlock
 62
     0
100
AcDbTrace
 10
2151.32514983155
 20
1834.796169158846
 30
0.0
 11
2157.991816498217
 21
1834.796169158846
 31
0.0
 12
2154.658483164883
 22
1854.796169158846
 32
0.0
 13
2154.658483164883
 23
1854.796169158846
 33
0.0
  0
SOLID
  5
DD4
330
DCF
100
AcDbEntity
  8
0
  6
ByBlock
 62
     0
100
AcDbTrace
 10
2151.32514983155
 20
1401.796169158846
 30
0.0
 11
2157.991816498217
 21
1401.796169158846
 31
0.0
 12
2154.658483164883
 22
1381.796169158846
 32
0.0
 13
2154.658483164883
 23
1381.796169158846
 33
0.0
  0
MTEXT
  5
DD5
330
DCF
100
AcDbEntity
  8
0
  6
ByBlock
 62
     0
100
AcDbMText
 10
2139.658483164883
 20
1618.296169158845
 30
0.0
 40
20.0
 41
0.0
 71
     5
 72
     1
  1
\A1;473
 11
0.0000000000000001
 21
1.0
 31
0.0
 73
     1
 44
1.0
  0
POINT
  5
DD6
330
DCF
100
AcDbEntity
  8
DEFPOINTS
  6
ByBlock
 62
     0
100
AcDbPoint
 10
2440.388014345042
 20
1854.796169158846
 30
0.0
  0
POINT
  5
DD7
330
DCF
100
AcDbEntity
  8
DEFPOINTS
  6
ByBlock
 62
     0
100
AcDbPoint
 10
2440.388014345045
 20
1381.796169158846
 30
0.0
  0
POINT
  5
DD8
330
DCF
100
AcDbEntity
  8
DEFPOINTS
  6
ByBlock
 62
     0
100
AcDbPoint
 10
2154.658483164883
 20
1381.796169158846
 30
0.0
  0
ENDBLK
  5
DDA
330
DCF
100
AcDbEntity
  8
0
100
AcDbBlockEnd
  0
BLOCK
  5
DE5
330
DDB
100
AcDbEntity
  8
0
100
AcDbBlockBegin
  2
*D79
 70
     1
 10
0.0
 20
0.0
 30
0.0
  3
*D79
  1

  0
LINE
  5
DDC
330
DDB
100
AcDbEntity
  8
0
  6
ByBlock
 62
     0
100
AcDbLine
 10
976.6592027870556
 20
1697.922323293603
 30
0.0
 11
976.6592027870556
 21
1375.570833949639
 31
0.0
  0
LINE
  5
DDD
330
DDB
100
AcDbEntity
  8
0
  6
ByBlock
 62
     0
100
AcDbLine
 10
1747.626443832977
 20
1689.809841526128
 30
0.0
 11
1747.626443832977
 21
1375.570833949639
 31
0.0
  0
LINE
  5
DDE
330
DDB
100
AcDbEntity
  8
0
  6
ByBlock
 62
     0
100
AcDbLine
 10
996.6592027870555
 20
1385.570833949639
 30
0.0
 11
1727.626443832977
 21
1385.570833949639
 31
0.0
  0
SOLID
  5
DDF
330
DDB
100
AcDbEntity
  8
0
  6
ByBlock
 62
     0
100
AcDbTrace
 10
996.6592027870555
 20
1388.904167282973
 30
0.0
 11
996.6592027870555
 21
1382.237500616306
 31
0.0
 12
976.6592027870556
 22
1385.570833949639
 32
0.0
 13
976.6592027870556
 23
1385.570833949639
 33
0.0
  0
SOLID
  5
DE0
330
DDB
100
AcDbEntity
  8
0
  6
ByBlock
 62
     0
100
AcDbTrace
 10
1727.626443832977
 20
1388.904167282973
 30
0.0
 11
1727.626443832977
 21
1382.237500616306
 31
0.0
 12
1747.626443832977
 22
1385.570833949639
 32
0.0
 13
1747.626443832977
 23
1385.570833949639
 33
0.0
  0
MTEXT
  5
DE1
330
DDB
100
AcDbEntity
  8
0
  6
ByBlock
 62
     0
100
AcDbMText
 10
1362.142823310016
 20
1400.570833949639
 30
0.0
 40
20.0
 41
0.0
 71
     5
 72
     1
  1
\A1;771
 73
     1
 44
1.0
  0
POINT
  5
DE2
330
DDB
100
AcDbEntity
  8
DEFPOINTS
  6
ByBlock
 62
     0
100
AcDbPoint
 10
976.6592027870556
 20
1702.922323293603
 30
0.0
  0
POINT
  5
DE3
330
DDB
100
AcDbEntity
  8
DEFPOINTS
  6
ByBlock
 62
     0
100
AcDbPoint
 10
1747.626443832977
 20
1694.809841526128
 30
0.0
  0
POINT
  5
DE4
330
DDB
100
AcDbEntity
  8
DEFPOINTS
  6
ByBlock
 62
     0
100
AcDbPoint
 10
1747.626443832977
 20
1385.570833949639
 30
0.0
  0
ENDBLK
  5
DE6
330
DDB
100
AcDbEntity
  8
0
100
AcDbBlockEnd
  0
BLOCK
  5
DF1
330
DE7
100
AcDbEntity
  8
0
100
AcDbBlockBegin
  2
*D80
 70
     1
 10
0.0
 20
0.0
 30
0.0
  3
*D80
  1

  0
LINE
  5
DE8
330
DE7
100
AcDbEntity
  8
0
  6
ByBlock
 62
     0
100
AcDbLine
 10
1608.632566493159
 20
1500.824534283502
 30
0.0
 11
1863.989085237746
 21
1500.824534283502
 31
0.0
  0
LINE
  5
DE9
330
DE7
100
AcDbEntity
  8
0
  6
ByBlock
 62
     0
100
AcDbLine
 10
1608.670781270037
 20
1888.825407628345
 30
0.0
 11
1863.989085237747
 21
1888.825407628345
 31
0.0
  0
LINE
  5
DEA
330
DE7
100
AcDbEntity
  8
0
  6
ByBlock
 62
     0
100
AcDbLine
 10
1853.989085237747
 20
1520.824534283502
 30
0.0
 11
1853.989085237747
 21
1868.825407628345
 31
0.0
  0
SOLID
  5
DEB
330
DE7
100
AcDbEntity
  8
0
  6
ByBlock
 62
     0
100
AcDbTrace
 10
1850.655751904413
 20
1520.824534283502
 30
0.0
 11
1857.32241857108
 21
1520.824534283502
 31
0.0
 12
1853.989085237747
 22
1500.824534283502
 32
0.0
 13
1853.989085237747
 23
1500.824534283502
 33
0.0
  0
SOLID
  5
DEC
330
DE7
100
AcDbEntity
  8
0
  6
ByBlock
 62
     0
100
AcDbTrace
 10
1850.655751904414
 20
1868.825407628345
 30
0.0
 11
1857.32241857108
 21
1868.825407628345
 31
0.0
 12
1853.989085237747
 22
1888.825407628345
 32
0.0
 13
1853.989085237747
 23
1888.825407628345
 33
0.0
  0
MTEXT
  5
DED
330
DE7
100
AcDbEntity
  8
0
  6
ByBlock
 62
     0
100
AcDbMText
 10
1838.989085237746
 20
1694.824970955923
 30
0.0
 40
20.0
 41
0.0
 71
     5
 72
     1
  1
\A1;388
 11
0.0000000000000001
 21
1.0
 31
0.0
 73
     1
 44
1.0
  0
POINT
  5
DEE
330
DE7
100
AcDbEntity
  8
DEFPOINTS
  6
ByBlock
 62
     0
100
AcDbPoint
 10
1603.632566493158
 20
1500.824534283502
 30
0.0
  0
POINT
  5
DEF
330
DE7
100
AcDbEntity
  8
DEFPOINTS
  6
ByBlock
 62
     0
100
AcDbPoint
 10
1603.670781270037
 20
1888.825407628345
 30
0.0
  0
POINT
  5
DF0
330
DE7
100
AcDbEntity
  8
DEFPOINTS
  6
ByBlock
 62
     0
100
AcDbPoint
 10
1853.989085237747
 20
1888.825407628345
 30
0.0
  0
ENDBLK
  5
DF2
330
DE7
100
AcDbEntity
  8
0
100
AcDbBlockEnd
  0
BLOCK
  5
DFD
330
DF3
100
AcDbEntity
  8
0
100
AcDbBlockBegin
  2
*D81
 70
     1
 10
0.0
 20
0.0
 30
0.0
  3
*D81
  1

  0
LINE
  5
DF4
330
DF3
100
AcDbEntity
  8
0
  6
ByBlock
 62
     0
100
AcDbLine
 10
1195.626443056829
 20
1968.779680029719
 30
0.0
 11
873.2804293775696
 21
1968.779680029719
 31
0.0
  0
LINE
  5
DF5
330
DF3
100
AcDbEntity
  8
0
  6
ByBlock
 62
     0
100
AcDbLine
 10
1195.626318938348
 20
1500.774513760615
 30
0.0
 11
873.2804293775696
 21
1500.774513760615
 31
0.0
  0
LINE
  5
DF6
330
DF3
100
AcDbEntity
  8
0
  6
ByBlock
 62
     0
100
AcDbLine
 10
883.2804293775696
 20
1948.779680029719
 30
0.0
 11
883.2804293775696
 21
1520.774513760615
 31
0.0
  0
SOLID
  5
DF7
330
DF3
100
AcDbEntity
  8
0
  6
ByBlock
 62
     0
100
AcDbTrace
 10
879.9470960442365
 20
1948.779680029719
 30
0.0
 11
886.6137627109031
 21
1948.779680029719
 31
0.0
 12
883.2804293775696
 22
1968.779680029719
 32
0.0
 13
883.2804293775696
 23
1968.779680029719
 33
0.0
  0
SOLID
  5
DF8
330
DF3
100
AcDbEntity
  8
0
  6
ByBlock
 62
     0
100
AcDbTrace
 10
879.9470960442365
 20
1520.774513760615
 30
0.0
 11
886.6137627109031
 21
1520.774513760615
 31
0.0
 12
883.2804293775696
 22
1500.774513760615
 32
0.0
 13
883.2804293775696
 23
1500.774513760615
 33
0.0
  0
MTEXT
  5
DF9
330
DF3
100
AcDbEntity
  8
0
  6
ByBlock
 62
     0
100
AcDbMText
 10
868.2804293775697
 20
1734.777096895167
 30
0.0
 40
20.0
 41
0.0
 71
     5
 72
     1
  1
\A1;468
 11
0.0000000000000001
 21
1.0
 31
0.0
 73
     1
 44
1.0
  0
POINT
  5
DFA
330
DF3
100
AcDbEntity
  8
DEFPOINTS
  6
ByBlock
 62
     0
100
AcDbPoint
 10
1200.626443056828
 20
1968.779680029719
 30
0.0
  0
POINT
  5
DFB
330
DF3
100
AcDbEntity
  8
DEFPOINTS
  6
ByBlock
 62
     0
100
AcDbPoint
 10
1200.626318938348
 20
1500.774513760615
 30
0.0
  0
POINT
  5
DFC
330
DF3
100
AcDbEntity
  8
DEFPOINTS
  6
ByBlock
 62
     0
100
AcDbPoint
 10
883.2804293775696
 20
1500.774513760615
 30
0.0
  0
ENDBLK
  5
DFE
330
DF3
100
AcDbEntity
  8
0
100
AcDbBlockEnd
  0
BLOCK
  5
E27
330
DFF
100
AcDbEntity
  8
0
100
AcDbBlockBegin
  2
A$C4A592B1E
 70
     0
 10
0.0
 20
0.0
 30
0.0
  3
A$C4A592B1E
  1

  0
DIMENSION
  5
E00
330
DFF
100
AcDbEntity
  8
0
100
AcDbDimension
  2
*D79
 10
889.3460112766327
 20
136.8428860814582
 30
0.0
 11
503.8623907536716
 21
151.8428860814582
 31
0.0
 12
-858.2804325563447
 22
-1248.72794786818
 32
0.0
 70
    32
 71
     5
 42
-1.0
  3
STANDARD
100
AcDbAlignedDimension
 13
118.3787702307109
 23
454.1943754254222
 33
0.0
 14
889.3460112766327
 24
446.081893657947
 34
0.0
100
AcDbRotatedDimension
1001
ACAD
1000
DSTYLE
1002
{
1070
    78
1070
     8
1070
   140
1040
2.5
1070
    74
1070
     0
1070
   172
1070
     1
1070
    73
1070
     0
1070
   272
1070
     1
1070
    77
1070
     1
1070
    40
1040
8.0
1070
   147
1040
0.625
1070
    42
1040
0.625
1070
    44
1040
1.25
1070
    43
1040
3.75
1070
   271
1070
     1
1070
   141
1040
2.5
1070
    41
1040
2.5
1070
   273
1070
     8
1070
   274
1070
     4
1070
   143
1040
0.0394
1070
   171
1070
     4
1002
}
  0
ARC
  5
E01
330
DFF
100
AcDbEntity
  8
0
100
AcDbCircle
 10
415.6780481418008
 20
563.283250662351
 30
0.0
 40
149.0
100
AcDbArc
 50
36.63587548423043
 51
77.90576918825269
  0
LINE
  5
E02
330
DFF
100
AcDbEntity
  8
0
100
AcDbLine
 10
342.3458863820038
 20
252.0465658924337
 30
0.0
 11
745.3521339368144
 21
252.0965864153208
 31
0.0
  0
MTEXT
  5
E03
330
DFF
100
AcDbEntity
  8
0
100
AcDbMText
 10
441.4539557130956
 20
516.9203950027966
 30
0.0
 40
30.0
 41
257.0002999999999
 71
     1
 72
     5
  1
501
 73
     1
 44
1.0
  0
MTEXT
  5
E04
330
DFF
100
AcDbEntity
  8
0
100
AcDbMText
 10
434.0423579238104
 20
345.012678928475
 30
0.0
 40
30.0
 41
227.6635999999999
 71
     1
 72
     5
  1
3221A
 73
     1
 44
1.0
  0
DIMENSION
  5
E05
330
DFF
100
AcDbEntity
  8
0
100
AcDbDimension
  2
*D81
 10
24.99999682122507
 20
252.0465658924337
 30
0.0
 11
9.999996821225067
 21
486.0491490269858
 31
0.0
 12
-858.2804325563447
 22
-1248.72794786818
 32
0.0
 70
    32
 71
     5
 42
-1.0
  3
STANDARD
100
AcDbAlignedDimension
 13
342.3460105004842
 23
720.051732161538
 33
0.0
 14
342.3458863820038
 24
252.0465658924337
 34
0.0
 50
90.0
100
AcDbRotatedDimension
1001
ACAD
1000
DSTYLE
1002
{
1070
    78
1070
     8
1070
   140
1040
2.5
1070
    74
1070
     0
1070
   172
1070
     1
1070
    73
1070
     0
1070
   272
1070
     1
1070
    77
1070
     1
1070
    40
1040
8.0
1070
   147
1040
0.625
1070
    42
1040
0.625
1070
    44
1040
1.25
1070
    43
1040
3.75
1070
   271
1070
     1
1070
   141
1040
2.5
1070
    41
1040
2.5
1070
   273
1070
     8
1070
   274
1070
     4
1070
   143
1040
0.0394
1070
   171
1070
     4
1002
}
  0
ARC
  5
E06
330
DFF
100
AcDbEntity
  8
0
100
AcDbCircle
 10
269.0139728591665
 20
563.283250662351
 30
0.0
 40
149.0
100
AcDbArc
 50
102.0942308117472
 51
178.4972998456235
  0
ARC
  5
E07
330
DFF
100
AcDbEntity
  8
0
  6
Continuous
100
AcDbCircle
 10
342.3460105004838
 20
5251.046565900137
 30
0.0
 40
4999.0
100
AcDbArc
 50
268.4347899831744
 51
270.0142229300569
  0
ARC
  5
E08
330
DFF
100
AcDbEntity
  8
0
  6
Continuous
100
AcDbCircle
 10
208.2309778614849
 20
342.878561642312
 30
0.0
 40
89.0
100
AcDbArc
 50
181.0878450356233
 51
268.4347899831731
  0
ARC
  5
E09
330
DFF
100
AcDbEntity
  8
0
  6
Continuous
100
AcDbCircle
 10
5117.346010500483
 20
436.0965659001366
 30
0.0
 40
4999.0
100
AcDbArc
 50
178.4972998456239
 51
181.0878450356235
  0
ARC
  5
E0A
330
DFF
100
AcDbEntity
  8
0
100
AcDbCircle
 10
342.3460105004842
 20
221.051732161538
 30
0.0
 40
499.0
100
AcDbArc
 50
77.90576918825266
 51
102.0942308117472
  0
DIMENSION
  5
E0B
330
DFF
100
AcDbEntity
  8
0
100
AcDbDimension
  2
*D76
 10
2143.594741399196
 20
10.00000159615229
 30
0.0
 11
1762.108009499686
 21
25.00000159615229
 31
0.0
 12
-858.2804325563447
 22
-1248.72794786818
 32
0.0
 70
    32
 71
     5
 42
-1.0
  3
STANDARD
100
AcDbAlignedDimension
 13
1380.621277600176
 23
366.5091530169978
 33
0.0
 14
2143.594741399196
 24
342.3074334481062
 34
0.0
100
AcDbRotatedDimension
1001
ACAD
1000
DSTYLE
1002
{
1070
    78
1070
     8
1070
   140
1040
2.5
1070
    74
1070
     0
1070
   172
1070
     1
1070
    73
1070
     0
1070
   272
1070
     1
1070
    77
1070
     1
1070
    40
1040
8.0
1070
   147
1040
0.625
1070
    42
1040
0.625
1070
    44
1040
1.25
1070
    43
1040
3.75
1070
   271
1070
     1
1070
   141
1040
2.5
1070
    41
1040
2.5
1070
   273
1070
     8
1070
   274
1070
     4
1070
   143
1040
0.0394
1070
   171
1070
     4
1002
}
  0
ARC
  5
E0C
330
DFF
100
AcDbEntity
  8
0
  6
Continuous
100
AcDbCircle
 10
1582.107581788686
 20
-593.9317787093346
 30
0.0
 40
1200.0
100
AcDbArc
 50
85.89084925864193
 51
89.99999999999969
  0
LINE
  5
E0D
330
DFF
100
AcDbEntity
  8
0
100
AcDbLine
 10
1582.107581788691
 20
133.0682212906648
 30
0.0
 11
1977.098327788691
 21
133.0682212906648
 31
0.0
  0
DIMENSION
  5
E0E
330
DFF
100
AcDbEntity
  8
0
100
AcDbDimension
  2
*D80
 10
995.7086526814023
 20
640.0974597601639
 30
0.0
 11
980.7086526814018
 21
446.0970230877424
 31
0.0
 12
-858.2804325563447
 22
-1248.72794786818
 32
0.0
 70
    32
 71
     5
 42
-1.0
  3
STANDARD
100
AcDbAlignedDimension
 13
745.3521339368144
 23
252.0965864153208
 33
0.0
 14
745.3903487136923
 24
640.0974597601639
 34
0.0
 50
90.0
100
AcDbRotatedDimension
1001
ACAD
1000
DSTYLE
1002
{
1070
    78
1070
     8
1070
   140
1040
2.5
1070
    74
1070
     0
1070
   172
1070
     1
1070
    73
1070
     0
1070
   272
1070
     1
1070
    77
1070
     1
1070
    40
1040
8.0
1070
   147
1040
0.625
1070
    42
1040
0.625
1070
    44
1040
1.25
1070
    43
1040
3.75
1070
   271
1070
     1
1070
   141
1040
2.5
1070
    41
1040
2.5
1070
   273
1070
     8
1070
   274
1070
     4
1070
   143
1040
0.0394
1070
   171
1070
     4
1002
}
  0
ARC
  5
E0F
330
DFF
100
AcDbEntity
  8
0
100
AcDbCircle
 10
810.7231307505154
 20
561.0381762384355
 30
0.0
 40
74.0
100
AcDbArc
 50
4.616417930911594
 51
81.15048338780525
  0
DIMENSION
  5
E10
330
DFF
100
AcDbEntity
  8
0
100
AcDbDimension
  2
*D78
 10
1296.378050608538
 20
133.0682212906648
 30
0.0
 11
1281.378050608539
 21
369.5682212906651
 31
0.0
 12
-858.2804325563447
 22
-1248.72794786818
 32
0.0
 70
    32
 71
     5
 42
-1.0
  3
STANDARD
100
AcDbAlignedDimension
 13
1582.107581788697
 23
606.0682212906653
 33
0.0
 14
1582.107581788699
 24
133.0682212906648
 34
0.0
 50
90.0
100
AcDbRotatedDimension
1001
ACAD
1000
DSTYLE
1002
{
1070
    78
1070
     8
1070
   140
1040
2.5
1070
    74
1070
     0
1070
   172
1070
     1
1070
    73
1070
     0
1070
   272
1070
     1
1070
    77
1070
     1
1070
    40
1040
8.0
1070
   147
1040
0.625
1070
    42
1040
0.625
1070
    44
1040
1.25
1070
    43
1040
3.75
1070
   271
1070
     1
1070
   141
1040
2.5
1070
    41
1040
2.5
1070
   273
1070
     8
1070
   274
1070
     4
1070
   143
1040
0.0394
1070
   171
1070
     4
1002
}
  0
ARC
  5
E11
330
DFF
100
AcDbEntity
  8
0
  6
Continuous
100
AcDbCircle
 10
1501.921495408226
 20
486.0956244388374
 30
0.0
 40
117.0
100
AcDbArc
 50
94.24610564704222
 51
175.6311855640633
  0
ARC
  5
E12
330
DFF
100
AcDbEntity
  8
0
100
AcDbCircle
 10
745.3156590065258
 20
751.0965850835333
 30
0.0
 40
499.0
100
AcDbArc
 50
270.0041939419941
 51
278.8474398720405
  0
ARC
  5
E13
330
DFF
100
AcDbEntity
  8
0
100
AcDbCircle
 10
-609.6539651567158
 20
446.3476996410338
 30
0.0
 40
1499.0
100
AcDbArc
 50
355.3632624412297
 51
4.616417930911586
  0
ARC
  5
E14
330
DFF
100
AcDbEntity
  8
0
100
AcDbCircle
 10
810.6823670927877
 20
331.1535014710448
 30
0.0
 40
74.0
100
AcDbArc
 50
278.8474398720405
 51
355.3632624412299
  0
ARC
  5
E15
330
DFF
100
AcDbEntity
  8
0
  6
Continuous
100
AcDbCircle
 10
2982.108075788692
 20
373.0118622906648
 30
0.0
 40
1601.5
100
AcDbArc
 50
175.6311855640634
 51
184.8341017547687
  0
ARC
  5
E16
330
DFF
100
AcDbEntity
  8
0
  6
Continuous
100
AcDbCircle
 10
1582.107581788691
 20
1333.068221290665
 30
0.0
 40
1200.0
100
AcDbArc
 50
265.5128950705296
 51
270.0
  0
ARC
  5
E17
330
DFF
100
AcDbEntity
  8
0
  6
Continuous
100
AcDbCircle
 10
1496.909965072386
 20
247.4060426614831
 30
0.0
 40
111.0
100
AcDbArc
 50
184.8341017547687
 51
265.5128950705296
  0
ARC
  5
E18
330
DFF
100
AcDbEntity
  8
0
100
AcDbCircle
 10
745.3412014697565
 20
141.097462180456
 30
0.0
 40
499.0
100
AcDbArc
 50
81.15048338780528
 51
90.00066448508937
  0
LINE
  5
E19
330
DFF
100
AcDbEntity
  8
0
100
AcDbLine
 10
745.3470001989535
 20
640.0974621468307
 30
0.0
 11
559.3155231437963
 21
640.0974621468307
 31
0.0
  0
ARC
  5
E1A
330
DFF
100
AcDbEntity
  8
0
100
AcDbCircle
 10
559.3155231437963
 20
670.0974621468307
 30
0.0
 40
30.0
100
AcDbArc
 50
216.6358754842306
 51
270.0
  0
ARC
  5
E1B
330
DFF
100
AcDbEntity
  8
0
  6
Continuous
100
AcDbCircle
 10
1582.107581788697
 20
-593.9317787093346
 30
0.0
 40
1200.0
100
AcDbArc
 50
90.00000000000033
 51
94.24610564704231
  0
ARC
  5
E1C
330
DFF
100
AcDbEntity
  8
0
  6
Continuous
100
AcDbCircle
 10
1659.496866660673
 20
483.2919207082944
 30
0.0
 40
120.0
100
AcDbArc
 50
41.18649738348175
 51
85.89084925864206
  0
DIMENSION
  5
E1D
330
DFF
100
AcDbEntity
  8
0
100
AcDbDimension
  2
*D77
 10
2270.914393787542
 20
552.0687392906645
 30
0.0
 11
2255.91439378754
 21
342.5684802906646
 31
0.0
 12
-858.2804325563447
 22
-1248.72794786818
 32
0.0
 70
    32
 71
     5
 42
-1.0
  3
STANDARD
100
AcDbAlignedDimension
 13
1977.098327788691
 23
133.0682212906648
 33
0.0
 14
1977.098327788691
 24
552.0687392906645
 34
0.0
 50
90.0
100
AcDbRotatedDimension
1001
ACAD
1000
DSTYLE
1002
{
1070
    78
1070
     8
1070
   140
1040
2.5
1070
    74
1070
     0
1070
   172
1070
     1
1070
    73
1070
     0
1070
   272
1070
     1
1070
    77
1070
     1
1070
    40
1040
8.0
1070
   147
1040
0.625
1070
    42
1040
0.625
1070
    44
1040
1.25
1070
    43
1040
3.75
1070
   271
1070
     1
1070
   141
1040
2.5
1070
    41
1040
2.5
1070
   273
1070
     8
1070
   274
1070
     4
1070
   143
1040
0.0394
1070
   171
1070
     4
1002
}
  0
LINE
  5
E1E
330
DFF
100
AcDbEntity
  8
0
100
AcDbLine
 10
1977.098327788691
 20
552.0687392906645
 30
0.0
 11
1772.382384379934
 21
552.0687392906645
 31
0.0
  0
MTEXT
  5
E1F
330
DFF
100
AcDbEntity
  8
DIM
 62
     1
100
AcDbMText
 10
1708.299727788691
 20
278.0054422906649
 30
0.0
 40
50.0
 41
207.1696
 71
     1
 72
     5
  1
503
 73
     1
 44
1.0
  0
MTEXT
  5
E20
330
DFF
100
AcDbEntity
  8
DIM
100
AcDbMText
 10
1695.135809788691
 20
195.0572812906648
 30
0.0
 40
30.0
 41
206.8926999999999
 71
     1
 72
     5
  1
\f\M+5CBCE\M+5CCE5|b0|i0|c134|p54;\M+5B6D4\M+5BAB8
 73
     1
 44
1.0
  0
ARC
  5
E21
330
DFF
100
AcDbEntity
  8
0
100
AcDbCircle
 10
1772.382384379934
 20
582.0687392906645
 30
0.0
 40
30.0
100
AcDbArc
 50
221.1864973834821
 51
270.0
  0
ARC
  5
E22
330
DFF
100
AcDbEntity
  8
0
  6
Continuous
100
AcDbCircle
 10
942.0983277886914
 20
345.2430902906647
 30
0.0
 40
1201.5
100
AcDbArc
 50
353.7356482238781
 51
5.984366899662125
  0
ARC
  5
E23
330
DFF
100
AcDbEntity
  8
0
  6
Continuous
100
AcDbCircle
 10
2050.937719049731
 20
223.5243391146569
 30
0.0
 40
86.0
100
AcDbArc
 50
276.9070847689487
 51
353.7356482238777
  0
ARC
  5
E24
330
DFF
100
AcDbEntity
  8
0
  6
Continuous
100
AcDbCircle
 10
1977.098327788691
 20
833.068221290665
 30
0.0
 40
700.0
100
AcDbArc
 50
270.0
 51
276.9070847689487
  0
ARC
  5
E25
330
DFF
100
AcDbEntity
  8
0
100
AcDbCircle
 10
2051.51927538789
 20
461.5418909211837
 30
0.0
 40
86.0
100
AcDbArc
 50
5.984366899662099
 51
83.03824705124169
  0
ARC
  5
E26
330
DFF
100
AcDbEntity
  8
0
100
AcDbCircle
 10
1977.098327788691
 20
-147.9312607093351
 30
0.0
 40
700.0
100
AcDbArc
 50
83.03824705124153
 51
90.0
  0
ENDBLK
  5
E28
330
DFF
100
AcDbEntity
  8
0
100
AcDbBlockEnd
  0
BLOCK
  5
1F4A
330
1F49
100
AcDbEntity
  8
0
100
AcDbBlockBegin
  2
A$C22465CB6
 70
     0
 10
0.0
 20
0.0
 30
0.0
  3
A$C22465CB6
  1

  0
ARC
  5
1F4B
330
1F49
100
AcDbEntity
  8
0
100
AcDbCircle
 10
-381.2302853228457
 20
299.0229310617347
 30
240.0
 40
86.0
210
0.0
220
0.0
230
-1.0
100
AcDbArc
 50
95.5009105342051
 51
174.6984658390514
  0
ARC
  5
1F4C
330
1F49
100
AcDbEntity
  8
0
100
AcDbCircle
 10
360.0670534947153
 20
-25.66565413944027
 30
359.4932082145214
 40
49.99999997655
210
0.9884598500093561
220
-0.0875937217693062
230
-0.1235899058421945
100
AcDbArc
 50
3.527109727967605
 51
85.04794667160048
  0
SPLINE
  5
1F4D
330
1F49
100
AcDbEntity
  8
0
100
AcDbSpline
 70
     0
 71
     3
 72
    16
 73
    12
 74
     0
 42
0.0000000001
 43
0.0000000001
 40
0.0
 40
0.0
 40
0.0
 40
0.0
 40
0.1111111111111
 40
0.2222222222222
 40
0.3333333333333
 40
0.4444444444444002
 40
0.5555555555556
 40
0.6666666666667
 40
0.7777777777778
 40
0.8888888888889001
 40
1.0
 40
1.0
 40
1.0
 40
1.0
 10
388.7523090404325
 20
377.1291238461253
 30
-66.84618465816
 10
393.7369714345322
 20
376.6636619427253
 30
-67.08900692084999
 10
403.7026680582321
 20
374.8122620091252
 30
-67.55916303424
 10
417.9817320442325
 20
369.1349249564253
 30
-68.15119960529
 10
430.4502217131321
 20
361.0794529081252
 30
-68.59248351676
 10
440.425582691132
 20
351.5878594762252
 30
-68.87102455473
 10
447.7850581477323
 20
341.8352675921253
 30
-69.02904058606001
 10
453.1539086458324
 20
332.0962719384252
 30
-69.10412599714
 10
456.7812654986322
 20
322.7145670807253
 30
-69.09809044885
 10
458.9716222172324
 20
313.9921092690252
 30
-69.02950485122
 10
459.6863747868324
 20
308.7641315749252
 30
-68.95469828941999
 10
459.9104560678323
 20
306.3239947082253
 30
-68.91351601593
  0
SPLINE
  5
1F4E
330
1F49
100
AcDbEntity
  8
0
100
AcDbSpline
 70
     0
 71
     3
 72
    15
 73
    11
 74
     0
 42
0.0000000001
 43
0.0000000001
 40
0.0
 40
0.0
 40
0.0
 40
0.0
 40
0.125
 40
0.25
 40
0.375
 40
0.5
 40
0.625
 40
0.75
 40
0.875
 40
1.0
 40
1.0
 40
1.0
 40
1.0
 10
466.8623966297323
 20
306.9690944838252
 30
-198.6417688626999
 10
466.4120582463324
 20
311.8209984519253
 30
-198.6417904527999
 10
464.6788781653322
 20
321.4959833772252
 30
-198.6666499328999
 10
459.6054400571325
 20
335.4643575154252
 30
-198.771405648
 10
452.091378277032
 20
348.5214430185251
 30
-198.8756718330999
 10
442.4619335042325
 20
360.0256119971252
 30
-198.899748646
 10
430.9780993581325
 20
369.7111671394253
 30
-198.9473901755999
 10
417.9338940996322
 20
377.2751799350253
 30
-199.0357650505999
 10
404.0002640067323
 20
382.3903351004253
 30
-199.1244409498
 10
394.3276670694322
 20
384.1593356397253
 30
-199.1658674223
 10
389.4743804430323
 20
384.6268731185253
 30
-199.1658289896
  0
SPLINE
  5
1F4F
330
1F49
100
AcDbEntity
  8
0
100
AcDbSpline
 70
     0
 71
     3
 72
    15
 73
    11
 74
     0
 42
0.0000000001
 43
0.0000000001
 40
0.0
 40
0.0
 40
0.0
 40
0.0
 40
0.125
 40
0.25
 40
0.375
 40
0.5
 40
0.625
 40
0.75
 40
0.875
 40
1.0
 40
1.0
 40
1.0
 40
1.0
 10
466.367063265432
 20
306.9231304196252
 30
-181.3725611424999
 10
465.9207291422322
 20
311.7319377088252
 30
-181.3726833684
 10
464.2004617385323
 20
321.3326900980252
 30
-181.3477171142999
 10
459.1624153048322
 20
335.1957235834253
 30
-181.2443051727
 10
451.6777264216324
 20
348.1965492008253
 30
-181.1398560638999
 10
442.0922830517325
 20
359.6446579816253
 30
-181.115810755
 10
430.6980280458324
 20
369.2513697525253
 30
-181.0688529844
 10
417.7413710188321
 20
376.7613985001253
 30
-180.9806442772
 10
403.8971201890322
 20
381.8419661718252
 30
-180.89280236
 10
394.2598906603326
 20
383.6037098199251
 30
-180.8514033216
 10
389.4207392355323
 20
384.0698806637253
 30
-180.8512676784
  0
ARC
  5
1F50
330
1F49
100
AcDbEntity
  8
0
100
AcDbCircle
 10
-90.76972469223893
 20
299.0229310617205
 30
240.0
 40
86.0
210
0.0
220
0.0
230
-1.0
100
AcDbArc
 50
5.301534160948192
 51
84.49908946579466
  0
ARC
  5
1F51
330
1F49
100
AcDbEntity
  8
0
100
AcDbCircle
 10
316.8979867750804
 20
-59.92833164988222
 30
116.5603116419779
 40
49.99999999823
210
0.9950782225815949
220
0.0938828283536196
230
0.0317071834791199
100
AcDbArc
 50
3.501762934419136
 51
85.52908997487966
  0
SPLINE
  5
1F52
330
1F49
100
AcDbEntity
  8
0
100
AcDbSpline
 70
     0
 71
     3
 72
    15
 73
    11
 74
     0
 42
0.0000000001
 43
0.0000000001
 40
0.0
 40
0.0
 40
0.0
 40
0.0
 40
0.125
 40
0.25
 40
0.375
 40
0.5
 40
0.625
 40
0.75
 40
0.875
 40
1.0
 40
1.0
 40
1.0
 40
1.0
 10
13.01439617263213
 20
306.2381747121253
 30
-52.80485147919
 10
13.41595525623233
 20
310.6164041516253
 30
-52.88767007358
 10
14.98989136773252
 20
319.3827319418252
 30
-53.03653297197
 10
19.70082560093215
 20
332.0734784342253
 30
-53.20246440586
 10
26.39438459773236
 20
343.5619852522253
 30
-53.32791943578
 10
34.86893446023214
 20
353.8103073988252
 30
-53.42522227555
 10
45.11686688173222
 20
362.5633104774252
 30
-53.45646005718
 10
56.77869813433243
 20
369.4074021555252
 30
-53.41525185354
 10
69.5925444130321
 20
374.1858115620253
 30
-53.31356938649999
 10
78.7308726166325
 20
375.8556867545253
 30
-53.20666844678
 10
83.32800316343218
 20
376.2952926187252
 30
-53.14997482945
  0
SPLINE
  5
1F53
330
1F49
100
AcDbEntity
  8
0
100
AcDbSpline
 70
     0
 71
     3
 72
    15
 73
    11
 74
     0
 42
0.0000000001
 43
0.0000000001
 40
0.0
 40
0.0
 40
0.0
 40
0.0
 40
0.125
 40
0.25
 40
0.375
 40
0.5
 40
0.625
 40
0.75
 40
0.875
 40
1.0
 40
1.0
 40
1.0
 40
1.0
 10
82.52562957263217
 20
384.6268731185253
 30
-199.1658289896
 10
77.66298927733214
 20
384.1584309482253
 30
-199.1658653003999
 10
67.97598239383251
 20
382.3848302447253
 30
-199.1243164389
 10
54.03394778463233
 20
377.2604257339252
 30
-199.0355282030999
 10
40.99497369303207
 20
369.6914136530252
 30
-198.9472370532999
 10
29.52226140683251
 20
360.0097641239253
 30
-198.8997231669999
 10
19.88858958873243
 20
348.4939099573252
 30
-198.8755414688
 10
12.37944317773234
 20
335.4311697713252
 30
-198.7711013686999
 10
7.315291769432405
 20
321.4705628593252
 30
-198.6665382349
 10
5.587012784932085
 20
311.8109376797253
 30
-198.6417892595999
 10
5.137613385432358
 20
306.9690944841253
 30
-198.6417688626999
  0
SPLINE
  5
1F54
330
1F49
100
AcDbEntity
  8
0
100
AcDbSpline
 70
     0
 71
     3
 72
    15
 73
    11
 74
     0
 42
0.0000000001
 43
0.0000000001
 40
0.0
 40
0.0
 40
0.0
 40
0.0
 40
0.125
 40
0.25
 40
0.375
 40
0.5
 40
0.625
 40
0.75
 40
0.875
 40
1.0
 40
1.0
 40
1.0
 40
1.0
 10
82.57927087683219
 20
384.0698796548252
 30
-180.8512677404
 10
77.73076053773229
 20
383.6028039053252
 30
-180.851409217
 10
68.07913297823232
 20
381.8364673213253
 30
-180.8929409007
 10
54.22666364643237
 20
376.7467233117252
 30
-180.9808589566999
 10
41.27518969773245
 20
369.2317475530253
 30
-181.0690146215
 10
29.89195463333226
 20
359.6288444619253
 30
-181.1158268527
 10
20.30232043343222
 20
348.1691301219253
 30
-181.1400021290999
 10
12.82251163873252
 20
335.1626771566253
 30
-181.2445931084
 10
7.793742214732445
 20
321.3073945584253
 30
-181.3478351809999
 10
6.078346592232263
 20
311.7219318900253
 30
-181.3726751895999
 10
5.632946017532503
 20
306.9231304876252
 30
-181.3725611001
  0
LINE
  5
1F55
330
1F49
100
AcDbEntity
  8
0
100
AcDbLine
 10
464.8725387302643
 20
195.999998318525
 30
-66.3872507371883
 11
471.5025499666793
 21
195.999998318525
 31
-181.3725603403701
  0
LINE
  5
1F56
330
1F49
100
AcDbEntity
  8
0
100
AcDbLine
 10
466.367063265432
 20
306.9231304196252
 30
-181.3725611424999
 11
459.9104560678323
 21
306.3239947082253
 31
-68.91351601593
  0
LINE
  5
1F57
330
1F49
100
AcDbEntity
  8
0
100
AcDbLine
 10
466.3670640387322
 20
85.07686614562528
 30
-181.3725610976999
 11
459.9104529863324
 21
85.67600221492529
 31
-68.91351619437
  0
LINE
  5
1F58
330
1F49
100
AcDbEntity
  8
0
100
AcDbLine
 10
389.4207391440323
 20
7.930116922625273
 30
-180.8512677367
 11
388.7523101745324
 21
14.87086102942529
 31
-66.84618393564
  0
LINE
  5
1F59
330
1F49
100
AcDbEntity
  8
0
100
AcDbLine
 10
0.4974600780542461
 20
195.9999983185252
 30
-181.3725598230689
 11
8.079958382239965
 21
195.9999983185252
 31
-49.86811979329335
  0
LINE
  5
1F5A
330
1F49
100
AcDbEntity
  8
0
100
AcDbLine
 10
5.632946017532503
 20
306.9231304876252
 30
-181.3725611001
 11
13.01439617263213
 21
306.2381747121253
 31
-52.80485147919001
  0
LINE
  5
1F5B
330
1F49
100
AcDbEntity
  8
0
100
AcDbLine
 10
5.632946797232307
 20
85.0768662218253
 30
-181.3725611453
 11
13.01439682453247
 21
85.76182198542529
 31
-52.80485151693
  0
LINE
  5
1F5C
330
1F49
100
AcDbEntity
  8
0
100
AcDbLine
 10
82.57927078473221
 20
7.930116026925276
 30
-180.8512676816999
 11
83.32800478573245
 21
15.70472083822528
 31
-53.14997586289
  0
ARC
  5
1F5D
330
1F49
100
AcDbEntity
  8
0
100
AcDbCircle
 10
-236.0000050075323
 20
1600.999998318664
 30
240.0
 40
1601.0
210
0.0
220
0.0
230
-1.0
100
AcDbArc
 50
264.4990894657926
 51
275.5009105342115
  0
ARC
  5
1F5E
330
1F49
100
AcDbEntity
  8
0
100
AcDbCircle
 10
236.0000050075323
 20
1600.999998318664
 30
-199.1658290231999
 40
1601.0
100
AcDbArc
 50
264.4990894657926
 51
275.5009105342115
  0
ARC
  5
1F5F
330
1F49
100
AcDbEntity
  8
0
100
AcDbCircle
 10
236.0000050075323
 20
1600.999998318664
 30
-180.8512672143999
 40
1600.440439532
100
AcDbArc
 50
264.4990894657926
 51
275.5009105342058
  0
SPLINE
  5
1F60
330
1F49
100
AcDbEntity
  8
0
100
AcDbSpline
 70
     0
 71
     3
 72
    15
 73
    11
 74
     0
 42
0.0000000001
 43
0.0000000001
 40
0.0
 40
0.0
 40
0.0
 40
0.0
 40
0.125
 40
0.25
 40
0.375
 40
0.5
 40
0.625
 40
0.75
 40
0.875
 40
1.0
 40
1.0
 40
1.0
 40
1.0
 10
5.137613385332315
 20
85.03090215322528
 30
-198.6417688626999
 10
5.587948904732455
 20
80.17903236432529
 30
-198.6417905526
 10
7.32111232373245
 20
70.50409350412528
 30
-198.6666496466
 10
12.39453250803217
 20
56.53571541012528
 30
-198.7714052162
 10
19.90860812033225
 20
43.47858276162528
 30
-198.8756717420999
 10
29.53807180703234
 20
31.97438741802529
 30
-198.8997485297
 10
41.0219293213322
 20
22.28881309762527
 30
-198.9473904808999
 10
54.06618107463237
 20
14.72478445792529
 30
-199.0357649085999
 10
67.9998081169324
 20
9.609646588225274
 30
-199.1244416373
 10
77.67236949673224
 20
7.840658633025299
 30
-199.1658673526999
 10
82.52562957203236
 20
7.373123518525289
 30
-199.1658289896
  0
SPLINE
  5
1F61
330
1F49
100
AcDbEntity
  8
0
100
AcDbSpline
 70
     0
 71
     3
 72
    15
 73
    11
 74
     0
 42
0.0000000001
 43
0.0000000001
 40
0.0
 40
0.0
 40
0.0
 40
0.0
 40
0.125
 40
0.25
 40
0.375
 40
0.5
 40
0.625
 40
0.75
 40
0.875
 40
1.0
 40
1.0
 40
1.0
 40
1.0
 10
5.632946797232307
 20
85.0768662218253
 30
-181.3725611453
 10
6.07927838083242
 20
80.26808938482529
 30
-181.3726838873
 10
7.799529628232447
 20
70.66738251822528
 30
-181.3477170728
 10
12.83755884563243
 20
56.8043472061253
 30
-181.2443060676
 10
20.32225921413237
 20
43.80347754802527
 30
-181.1398558163
 10
29.90772306773215
 20
32.35534067632527
 30
-181.1158108722
 10
41.30199928453247
 20
22.7486113006253
 30
-181.0688529397999
 10
54.25870409783238
 20
15.23856632662529
 30
-180.9806437421999
 10
68.10294730333224
 20
10.15801667962529
 30
-180.892802154
 10
77.74014324733252
 20
8.396284747125292
 30
-180.8514036579
 10
82.57927078473221
 20
7.930116026925276
 30
-180.8512676816999
  0
ARC
  5
1F62
330
1F49
100
AcDbEntity
  8
0
100
AcDbCircle
 10
-90.76972469221846
 20
92.97706557531553
 30
240.0
 40
86.0
210
0.0
220
0.0
230
-1.0
100
AcDbArc
 50
275.5009105342062
 51
354.6984658390525
  0
LINE
  5
1F63
330
1F49
100
AcDbEntity
  8
0
100
AcDbLine
 10
82.52562957203236
 20
7.373123518525289
 30
-199.1658289896
 11
82.52562957203236
 21
7.373123518525289
 31
-240.0
  0
ARC
  5
1F64
330
1F49
100
AcDbEntity
  8
0
100
AcDbCircle
 10
315.250204401217
 20
-199.1658289896132
 30
81.43877302962621
 40
300.0
210
0.9953946750781128
220
-0.0958615711645613
230
0.0
100
AcDbArc
 50
176.5000000000004
 51
180.0000000000005
  0
LINE
  5
1F65
330
1F49
100
AcDbEntity
  8
0
100
AcDbLine
 10
0.0000050075323088
 20
195.999998318525
 30
-239.9999994934651
 11
0.0000050075323088
 21
195.999998318525
 31
-198.6417692074192
  0
LINE
  5
1F66
330
1F49
100
AcDbEntity
  8
0
100
AcDbLine
 10
5.137613385332315
 20
85.03090215322528
 30
-198.6417688626999
 11
5.137613385432358
 21
85.03090215292528
 31
-240.0
  0
LINE
  5
1F67
330
1F49
100
AcDbEntity
  8
0
100
AcDbLine
 10
5.137613385432358
 20
306.9690944841253
 30
-198.6417688626999
 11
5.137613385432358
 21
306.9690944841253
 31
-240.0
  0
ARC
  5
1F68
330
1F49
100
AcDbEntity
  8
0
100
AcDbCircle
 10
-1201.000005007487
 20
195.9999983185252
 30
240.0
 40
1201.0
210
0.0
220
0.0
230
-1.0
100
AcDbArc
 50
354.6984658390517
 51
5.30153416094913
  0
ARC
  5
1F69
330
1F49
100
AcDbEntity
  8
0
100
AcDbCircle
 10
1201.000005007487
 20
195.9999983185252
 30
-198.6417689008
 40
1201.0
100
AcDbArc
 50
174.6984658390518
 51
185.3015341609489
  0
ARC
  5
1F6A
330
1F49
100
AcDbEntity
  8
0
100
AcDbCircle
 10
1201.000005007487
 20
195.9999983185252
 30
-181.3725608416999
 40
1200.502544988
100
AcDbArc
 50
174.6984658390518
 51
185.3015341609494
  0
ARC
  5
1F6B
330
1F49
100
AcDbEntity
  8
0
100
AcDbCircle
 10
312.9721666529507
 20
-198.6416968382418
 30
-84.19262187272007
 40
299.9998748574
210
0.0923973574413591
220
-0.9957222144438897
230
0.0000008999809556
100
AcDbArc
 50
176.6999981885126
 51
179.9999992843422
  0
ARC
  5
1F6C
330
1F49
100
AcDbEntity
  8
0
100
AcDbCircle
 10
276.752535940704
 20
-198.6417688626897
 30
-306.1306509551533
 40
300.0
210
-0.0923972490966764
220
-0.9957222244980609
230
0.0
100
AcDbArc
 50
176.6999999999999
 51
179.9999999999996
  0
ARC
  5
1F6D
330
1F49
100
AcDbEntity
  8
0
100
AcDbCircle
 10
305.6341020759623
 20
-198.8120795986153
 30
-195.9999983185252
 40
305.6341027719081
210
0.0
220
-1.0
230
0.0
100
AcDbArc
 50
176.73267397961
 51
179.9643228677412
  0
SPLINE
  5
1F6E
330
1F49
100
AcDbEntity
  8
0
100
AcDbSpline
 70
     0
 71
     3
 72
    15
 73
    11
 74
     0
 42
0.0000000001
 43
0.0000000001
 40
0.0
 40
0.0
 40
0.0
 40
0.0
 40
0.125
 40
0.25
 40
0.375
 40
0.5
 40
0.625
 40
0.75
 40
0.875
 40
1.0
 40
1.0
 40
1.0
 40
1.0
 10
389.4743804424324
 20
7.373123518525289
 30
-199.1658289896
 10
394.3370492965323
 20
7.841568235425285
 30
-199.1658653805
 10
404.0240943410322
 20
9.615182609625293
 30
-199.1243156614
 10
417.9661296708323
 20
14.73960438662527
 30
-199.035528429
 10
431.0050560304325
 20
22.30860026562528
 30
-198.9472367204
 10
442.4777434830319
 20
31.9902292941253
 30
-198.8997233107
 10
452.1113979324322
 20
43.5060588883253
 30
-198.8755415344999
 10
459.6205309772321
 20
56.5687535717253
 30
-198.7711017961
 10
464.6847002172321
 20
70.52935908992528
 30
-198.6665385141999
 10
466.4129945702325
 20
80.18902719102527
 30
-198.6417891602999
 10
466.8623966296322
 20
85.03090215292528
 30
-198.6417688626999
  0
SPLINE
  5
1F6F
330
1F49
100
AcDbEntity
  8
0
100
AcDbSpline
 70
     0
 71
     3
 72
    15
 73
    11
 74
     0
 42
0.0000000001
 43
0.0000000001
 40
0.0
 40
0.0
 40
0.0
 40
0.0
 40
0.125
 40
0.25
 40
0.375
 40
0.5
 40
0.625
 40
0.75
 40
0.875
 40
1.0
 40
1.0
 40
1.0
 40
1.0
 10
389.4207391440323
 20
7.930116922625273
 30
-180.8512677367
 10
394.2692750652323
 20
8.397194948725285
 30
-180.8514088649
 10
403.9209386467322
 20
10.16354425842526
 30
-180.8929410786999
 10
417.7734137476321
 20
15.25330628942529
 30
-180.9808595592
 10
430.7248384119319
 20
22.76826547642528
 30
-181.0690146155
 10
442.1080506918324
 20
32.37114921872529
 30
-181.1158267826
 10
451.6976665641323
 20
43.83083810232529
 30
-181.1400022658
 10
459.1774638517322
 20
56.83724797012526
 30
-181.2445923015999
 10
464.2062505966323
 20
70.69253132402528
 30
-181.3478352129999
 10
465.9216610955322
 20
80.27803633292529
 30
-181.3726746968999
 10
466.3670640387322
 20
85.07686614562528
 30
-181.3725610976999
  0
ARC
  5
1F70
330
1F49
100
AcDbEntity
  8
0
100
AcDbCircle
 10
-381.2302853228247
 20
92.97706557533047
 30
240.0
 40
86.0
210
0.0
220
0.0
230
-1.0
100
AcDbArc
 50
185.301534160947
 51
264.4990894657934
  0
LINE
  5
1F71
330
1F49
100
AcDbEntity
  8
0
100
AcDbLine
 10
389.4743804424324
 20
7.373123518525289
 30
-199.1658289896
 11
389.4743804430323
 21
7.373123518525289
 31
-240.0
  0
ARC
  5
1F72
330
1F49
100
AcDbEntity
  8
0
100
AcDbCircle
 10
270.003498239128
 20
-199.1653356242616
 30
388.3877794584463
 40
299.9998680543999
210
0.995394687274156
220
0.0958614445159958
230
-0.0000013007098905
100
AcDbArc
 50
176.4999966631854
 51
179.9999977436318
  0
LINE
  5
1F73
330
1F49
100
AcDbEntity
  8
0
100
AcDbLine
 10
472.0000050075323
 20
195.9999983185252
 30
-198.6417695282375
 11
472.0000050075323
 21
195.9999983185252
 31
-239.999998972246
  0
LINE
  5
1F74
330
1F49
100
AcDbEntity
  8
0
100
AcDbLine
 10
466.8623966296322
 20
85.03090215292528
 30
-198.6417688626999
 11
466.8623966296322
 21
85.03090215292528
 31
-240.0
  0
LINE
  5
1F75
330
1F49
100
AcDbEntity
  8
0
100
AcDbLine
 10
466.8623966297323
 20
306.9690944838252
 30
-198.6417688626999
 11
466.8623966296322
 21
306.9690944841253
 31
-240.0
  0
ARC
  5
1F76
330
1F49
100
AcDbEntity
  8
0
100
AcDbCircle
 10
728.9999949924227
 20
195.9999983185252
 30
240.0
 40
1201.0
210
0.0
220
0.0
230
-1.0
100
AcDbArc
 50
174.6984658390518
 51
185.3015341609489
  0
ARC
  5
1F77
330
1F49
100
AcDbEntity
  8
0
100
AcDbCircle
 10
-728.9999949924227
 20
195.9999983185252
 30
-198.6417689008
 40
1201.0
100
AcDbArc
 50
354.6984658390517
 51
5.30153416094913
  0
ARC
  5
1F78
330
1F49
100
AcDbEntity
  8
0
100
AcDbCircle
 10
-728.9999949924227
 20
195.9999983185252
 30
-181.3725608416999
 40
1200.502544988
100
AcDbArc
 50
354.6984658390517
 51
5.301534160949537
  0
ARC
  5
1F79
330
1F49
100
AcDbEntity
  8
0
100
AcDbCircle
 10
-157.0086426594257
 20
-198.6417688626892
 30
127.8039601985382
 40
300.0
210
0.0923972490966863
220
0.9957222244980599
230
0.0
100
AcDbArc
 50
176.6999999999995
 51
179.9999999999992
  0
ARC
  5
1F7A
330
1F49
100
AcDbEntity
  8
0
100
AcDbCircle
 10
-193.2284915662002
 20
-198.6420077853688
 30
262.5189301652427
 40
299.9998756948
210
-0.0923973569612343
220
0.9957222144884461
230
0.0000008960526132
100
AcDbArc
 50
176.6999982062314
 51
179.9999992949261
  0
ARC
  5
1F7B
330
1F49
100
AcDbEntity
  8
0
100
AcDbCircle
 10
163.9692795210503
 20
-198.8571428571427
 30
-195.9999983185252
 40
308.030747497894
210
0.0
220
-1.0
230
0.0
100
AcDbArc
 50
0.040061125185724
 51
3.250286570748512
  0
ARC
  5
1F7C
330
1F49
100
AcDbEntity
  8
0
100
AcDbCircle
 10
414.8333383408656
 20
-69.375
 30
-195.9999983185252
 40
50.12898342610561
210
0.0
220
-1.0
230
0.0
100
AcDbArc
 50
3.608011390975121
 51
80.07744232008962
  0
SPLINE
  5
1F7D
330
1F49
100
AcDbEntity
  8
0
100
AcDbSpline
210
0.0000000000078311
220
-1.0
230
0.0000000000068262
 70
     8
 71
     3
 72
    13
 73
     9
 74
     0
 42
0.0000000001
 43
0.0000000001
 40
0.0
 40
0.0
 40
0.0
 40
0.0
 40
0.1666666666667
 40
0.3333333333333
 40
0.5
 40
0.6666666666667
 40
0.8333333333332999
 40
1.0
 40
1.0
 40
1.0
 40
1.0
 10
464.8725382283322
 20
195.9999983185252
 30
-66.38724981572
 10
464.6543256887325
 20
195.9999983185564
 30
-62.60275651357
 10
463.3534226262321
 20
195.9999983186062
 30
-55.08381214549999
 10
458.909112126032
 20
195.9999983186422
 30
-44.53572687259
 10
452.2007738826324
 20
195.999998318646
 30
-35.26149613258
 10
443.5739622173322
 20
195.9999983186228
 30
-27.73877872506
 10
433.4729868539325
 20
195.9999983185801
 30
-22.35507209181999
 10
426.1032218118325
 20
195.9999983185437
 30
-20.3768316418
 10
422.3541747583322
 20
195.9999983185252
 30
-19.81589276516
  0
SPLINE
  5
1F7E
330
1F49
100
AcDbEntity
  8
0
100
AcDbSpline
 70
     0
 71
     3
 72
    10
 73
     6
 74
     0
 42
0.0000000001
 43
0.0000000001
 40
0.0
 40
0.0
 40
0.0
 40
0.0
 40
0.3333333333333
 40
0.6666666666667
 40
1.0
 40
1.0
 40
1.0
 40
1.0
 10
417.4699579813323
 20
304.7321302350253
 30
-22.41433765049
 10
418.5520246392325
 20
292.7116418980753
 30
-21.83822842573
 10
420.3481945648323
 20
268.8345431899652
 30
-20.88248716773
 10
422.000194084032
 20
232.0739139366752
 30
-20.00405343491999
 10
422.3541688320324
 20
208.1255398861153
 30
-19.81589342949
 10
422.3541747583322
 20
195.9999983185252
 30
-19.81589276516
  0
ARC
  5
1F7F
330
1F49
100
AcDbEntity
  8
0
100
AcDbCircle
 10
435.605274871188
 20
-59.13593759885017
 30
-266.8421740678811
 40
49.99999999559999
210
0.0895543610664568
220
-0.9948400038091643
230
0.0476800087558783
100
AcDbArc
 50
3.30376176939868
 51
81.36774559352074
  0
ARC
  5
1F80
330
1F49
100
AcDbEntity
  8
0
100
AcDbCircle
 10
400.4599371038207
 20
-77.75122912038174
 30
-123.1353013537695
 40
50.00000000349
210
-0.0895548225201324
220
-0.9948399658921267
230
-0.0476799331704613
100
AcDbArc
 50
3.303760729131405
 51
81.36774691770687
  0
SPLINE
  5
1F81
330
1F49
100
AcDbEntity
  8
0
100
AcDbSpline
 70
     0
 71
     3
 72
    10
 73
     6
 74
     0
 42
0.0000000001
 43
0.0000000001
 40
0.0
 40
0.0
 40
0.0
 40
0.0
 40
0.3333333333333
 40
0.6666666666667
 40
1.0
 40
1.0
 40
1.0
 40
1.0
 10
422.3541747583322
 20
195.9999983185252
 30
-19.81589276516
 10
422.3541672199321
 20
183.8760127410552
 30
-19.81589358712
 10
422.0005108460322
 20
159.9296736616053
 30
-20.00388552125
 10
420.3467630590321
 20
123.1396286363753
 30
-20.88324828744
 10
418.5509869785323
 20
99.2768315950753
 30
-21.8387806499
 10
417.4699579951321
 20
87.2678663963253
 30
-22.41433755694
  0
ARC
  5
1F82
330
1F49
100
AcDbEntity
  8
0
100
AcDbCircle
 10
-30.40041780827568
 20
-21.38939526296833
 30
-393.8300317002303
 40
49.99999999304
210
-0.9884593943876904
220
-0.0875996468855491
230
0.1235893503188988
100
AcDbArc
 50
3.527074541946197
 51
85.04795765059165
  0
ARC
  5
1F83
330
1F49
100
AcDbEntity
  8
0
100
AcDbCircle
 10
-73.36837495884535
 20
-58.7609153953562
 30
-79.75862085257358
 40
49.99999998287
210
-0.9950788559373828
220
0.0938759147777884
230
-0.0317077765064495
100
AcDbArc
 50
3.501769373054221
 51
85.52905363505466
  0
ARC
  5
1F84
330
1F49
100
AcDbEntity
  8
0
100
AcDbCircle
 10
-35.55958459631301
 20
-38.62661477098656
 30
308.6354605539306
 40
50.00000002088
210
0.0890733785096879
220
0.9944800129409758
230
-0.0554566236060787
100
AcDbArc
 50
3.30508819576298
 51
86.64770770544711
  0
ARC
  5
1F85
330
1F49
100
AcDbEntity
  8
0
100
AcDbCircle
 10
58.15234800974031
 20
-52.90393347749705
 30
-195.9999983185252
 40
50.16666666666665
210
0.0
220
-1.0
230
0.0
100
AcDbArc
 50
93.7358592935495
 51
175.7858592807886
  0
SPLINE
  5
1F86
330
1F49
100
AcDbEntity
  8
0
100
AcDbSpline
210
-0.0000000000004223
220
1.0
230
0.0000000000004055
 70
     8
 71
     3
 72
    14
 73
    10
 74
     0
 42
0.0000000001
 43
0.0000000001
 40
0.0
 40
0.0
 40
0.0
 40
0.0
 40
0.1428571428571
 40
0.2857142857143
 40
0.4285714285714002
 40
0.5714285714286002
 40
0.7142857142857002
 40
0.8571428571428999
 40
1.0
 40
1.0
 40
1.0
 40
1.0
 10
8.079958443932355
 20
195.9999983185254
 30
-49.86811911414999
 10
8.279674021832306
 20
195.9999983185237
 30
-46.40442101157
 10
9.402733300932139
 20
195.9999983185209
 30
-39.51887518209999
 10
13.18549793943248
 20
195.9999983185184
 30
-29.76158098935
 10
18.90310099543238
 20
195.9999983185176
 30
-20.99673203749
 10
26.30867635543244
 20
195.9999983185181
 30
-13.60273632393
 10
35.08246183323218
 20
195.9999983185197
 30
-7.898856047001999
 10
44.84566358133224
 20
195.9999983185223
 30
-4.13136484455
 10
51.73295841363233
 20
195.9999983185243
 30
-3.019081893742999
 10
55.19696480233233
 20
195.9999983185252
 30
-2.824786768656
  0
ARC
  5
1F87
330
1F49
100
AcDbEntity
  8
0
100
AcDbCircle
 10
-70.52997725331533
 20
-60.27895695062818
 30
81.20084865342374
 40
49.99999999813
210
-0.0890706438337733
220
0.9944802475036363
230
0.055456809610212
100
AcDbArc
 50
3.305091944771747
 51
86.64766561671727
  0
SPLINE
  5
1F88
330
1F49
100
AcDbEntity
  8
0
100
AcDbSpline
 70
     0
 71
     3
 72
    18
 73
    14
 74
     0
 42
0.0000000001
 43
0.0000000001
 40
0.0
 40
0.0
 40
0.0
 40
0.0
 40
0.09090909090909
 40
0.1818181818182
 40
0.2727272727273
 40
0.3636363636364
 40
0.4545454545455
 40
0.5454545454545002
 40
0.6363636363636001
 40
0.7272727272727
 40
0.8181818181818
 40
0.9090909090908997
 40
1.0
 40
1.0
 40
1.0
 40
1.0
 10
390.4815494976324
 20
60.79196903972526
 30
-20.46714168816
 10
376.5036597532326
 20
59.55321916242528
 30
-18.71945528521
 10
350.0716430654325
 20
57.56568800202529
 30
-15.72475918193
 10
315.2247464315824
 20
55.72356423262528
 30
-12.45124727034
 10
284.0818176530024
 20
54.68591045352528
 30
-10.05032397137
 10
255.7611042270023
 20
54.24468732902528
 30
-8.298197399749
 10
229.9475362029725
 20
54.25676329042528
 30
-7.055644609053
 10
205.3433232540724
 20
54.63405602852529
 30
-6.183620312702998
 10
181.3340655001424
 20
55.35044741842529
 30
-5.629553730958998
 10
157.6376604655523
 20
56.3957707175253
 30
-5.370807352313
 10
133.9798203860322
 20
57.77371642762529
 30
-5.397093628746
 10
109.9956373125323
 20
59.5169286066253
 30
-5.718531124911
 10
94.22772260223245
 20
60.88964313802529
 30
-6.122940186999
 10
86.17248631323219
 20
61.64963118772528
 30
-6.379612140605
  0
SPLINE
  5
1F89
330
1F49
100
AcDbEntity
  8
0
100
AcDbSpline
 70
     0
 71
     3
 72
    18
 73
    14
 74
     0
 42
0.0000000001
 43
0.0000000001
 40
0.0
 40
0.0
 40
0.0
 40
0.0
 40
0.09090909090909
 40
0.1818181818182
 40
0.2727272727273
 40
0.3636363636364
 40
0.4545454545455
 40
0.5454545454545002
 40
0.6363636363636001
 40
0.7272727272727
 40
0.8181818181818
 40
0.9090909090908997
 40
1.0
 40
1.0
 40
1.0
 40
1.0
 10
86.17248630603217
 20
330.3503654631252
 30
-6.379611956938998
 10
94.25025806913254
 20
331.1124796992253
 30
-6.122221929069
 10
110.0554713937322
 20
332.4880372745253
 30
-5.717200935898
 10
134.0703504219322
 20
334.2323536693252
 30
-5.396311543068
 10
157.7694502485923
 20
335.6111998577253
 30
-5.371258593894999
 10
181.5128578719422
 20
336.6563183476253
 30
-5.632457934220998
 10
205.5617416105024
 20
337.3711724869252
 30
-6.189756090638
 10
230.2463394335144
 20
337.7458449520253
 30
-7.067915630785998
 10
256.0589506274423
 20
337.7526535618252
 30
-8.314925425442
 10
284.4814937510022
 20
337.3070003912252
 30
-10.07578615374
 10
316.4255926421223
 20
336.2298561360253
 30
-12.54946417296
 10
351.6589541116323
 20
334.3289514888252
 30
-15.89241819737
 10
377.1998722691324
 20
332.3850778456252
 30
-18.80650435961999
 10
390.4815494718322
 20
331.2080275824253
 30
-20.46714188375
  0
SPLINE
  5
1F8A
330
1F49
100
AcDbEntity
  8
0
100
AcDbSpline
 70
     0
 71
     3
 72
    18
 73
    14
 74
     0
 42
0.0000000001
 43
0.0000000001
 40
0.0
 40
0.0
 40
0.0
 40
0.0
 40
0.09090909090909
 40
0.1818181818182
 40
0.2727272727273
 40
0.3636363636364
 40
0.4545454545455
 40
0.5454545454545002
 40
0.6363636363636001
 40
0.7272727272727
 40
0.8181818181818
 40
0.9090909090908997
 40
1.0
 40
1.0
 40
1.0
 40
1.0
 10
388.7523101745324
 20
14.87086102942529
 30
-66.84618393564
 10
374.7426729701324
 20
13.62592690922528
 30
-65.14935189687
 10
348.1858770926324
 20
11.62285176912527
 30
-62.23440480248
 10
313.2259534194322
 20
9.768853367725283
 30
-59.05345957875
 10
281.9676407905221
 20
8.722495146225298
 30
-56.71892998339
 10
253.5458541999823
 20
8.276300393525275
 30
-55.01562009216
 10
227.6391583020973
 20
8.285908683625278
 30
-53.80755953598
 10
202.9474989737223
 20
8.662712973025293
 30
-52.95973439486
 10
178.852423094212
 20
9.380497320025284
 30
-52.42102885415
 10
155.0771961872424
 20
10.42834637552527
 30
-52.16918530171
 10
131.3187666770323
 20
11.81250745002529
 30
-52.19500383989998
 10
107.3093126061321
 20
13.55653665922529
 30
-52.50536405798
 10
91.32760893543219
 20
14.94949038792529
 30
-52.90306287303
 10
83.32800478573245
 20
15.70472083822528
 30
-53.14997586289
  0
SPLINE
  5
1F8B
330
1F49
100
AcDbEntity
  8
0
100
AcDbSpline
 70
     0
 71
     3
 72
    15
 73
    11
 74
     0
 42
0.0000000001
 43
0.0000000001
 40
0.0
 40
0.0
 40
0.0
 40
0.0
 40
0.125
 40
0.25
 40
0.375
 40
0.5
 40
0.625
 40
0.75
 40
0.875
 40
1.0
 40
1.0
 40
1.0
 40
1.0
 10
83.32800478573245
 20
15.70472083822528
 30
-53.14997586289
 10
78.72739940423253
 20
16.14464812042527
 30
-53.20670136694
 10
69.58297901353216
 20
17.81646117042529
 30
-53.31368987505999
 10
56.76736263093244
 20
22.59787125862528
 30
-53.41530606917
 10
45.10284305853247
 20
29.44608118922527
 30
-53.4565082747
 10
34.84868601963217
 20
38.20911207912528
 30
-53.42505400492999
 10
26.36612118343236
 20
48.47635669162528
 30
-53.32758166512
 10
19.67640252033243
 20
59.9797056278253
 30
-53.20180406584
 10
14.98444384753247
 20
72.64464821812527
 30
-53.03607875958
 10
13.4150334457322
 20
81.39378265632528
 30
-52.88750152571
 10
13.01439682453247
 20
85.76182198542529
 30
-52.80485151693
  0
SPLINE
  5
1F8C
330
1F49
100
AcDbEntity
  8
0
100
AcDbSpline
 70
     0
 71
     3
 72
    13
 73
     9
 74
     0
 42
0.0000000001
 43
0.0000000001
 40
0.0
 40
0.0
 40
0.0
 40
0.0
 40
0.1666666666667
 40
0.3333333333333
 40
0.5
 40
0.6666666666667
 40
0.8333333333332999
 40
1.0
 40
1.0
 40
1.0
 40
1.0
 10
13.01439682453247
 20
85.76182198542529
 30
-52.80485151693
 10
12.3563180229321
 20
93.09826152462528
 30
-52.4128500284
 10
11.22465898163227
 20
107.2051664337652
 30
-51.73901786989
 10
10.00559605563239
 20
126.2749037914252
 30
-51.01350959041
 10
9.118052749432536
 20
144.3700986168753
 30
-50.48549214322999
 10
8.51361794293234
 20
161.8109491675852
 30
-50.12599665274
 10
8.158288041332525
 20
178.9490444715152
 30
-49.91469489687
 10
8.079958612232076
 20
190.3326762295791
 30
-49.86811925179
 10
8.079958443932355
 20
195.9999983185254
 30
-49.86811911414999
  0
SPLINE
  5
1F8D
330
1F49
100
AcDbEntity
  8
0
100
AcDbSpline
 70
     0
 71
     3
 72
    13
 73
     9
 74
     0
 42
0.0000000001
 43
0.0000000001
 40
0.0
 40
0.0
 40
0.0
 40
0.0
 40
0.1666666666667
 40
0.3333333333333
 40
0.5
 40
0.6666666666667
 40
0.8333333333332999
 40
1.0
 40
1.0
 40
1.0
 40
1.0
 10
8.079958443932355
 20
195.9999983185254
 30
-49.86811911414999
 10
8.079958643532336
 20
201.6651976754183
 30
-49.8681192681
 10
8.15822539173223
 20
213.0397658327053
 30
-49.91465763808
 10
8.512694032732268
 20
230.1486903516552
 30
-50.12544723968
 10
9.114755943932323
 20
247.5482213932853
 30
-50.48353121314
 10
10.00201191123233
 20
265.6702548357553
 30
-51.01137658434
 10
11.22834559663215
 20
284.8499541346153
 30
-51.74121184108
 10
12.35869783743237
 20
298.9282730489252
 30
-52.41426796929
 10
13.01439617263213
 20
306.2381747121253
 30
-52.80485147919
  0
SPLINE
  5
1F8E
330
1F49
100
AcDbEntity
  8
0
100
AcDbSpline
 70
     0
 71
     3
 72
    16
 73
    12
 74
     0
 42
0.0000000001
 43
0.0000000001
 40
0.0
 40
0.0
 40
0.0
 40
0.0
 40
0.1111111111111
 40
0.2222222222222
 40
0.3333333333333
 40
0.4444444444444002
 40
0.5555555555556
 40
0.6666666666667
 40
0.7777777777778
 40
0.8888888888889001
 40
1.0
 40
1.0
 40
1.0
 40
1.0
 10
459.9104529863324
 20
85.67600221492529
 30
-68.91351619437
 10
459.6864100713323
 20
83.23627143042529
 30
-68.95468535405
 10
458.9715700029323
 20
78.00521372962527
 30
-69.02957154163999
 10
456.775609593932
 20
69.26472579302529
 30
-69.09821769555001
 10
453.1358854105324
 20
59.86267174192528
 30
-69.10406251853
 10
447.749279296132
 20
50.10823799632527
 30
-69.02834688131
 10
440.3700034612319
 20
40.34861200362526
 30
-68.86974576172
 10
430.3797660896324
 20
30.86570304032528
 30
-68.59015297466
 10
417.9140823105321
 20
22.83186249052528
 30
-68.1485998529
 10
403.6569930439322
 20
17.17706054862528
 30
-67.55694980061
 10
393.7202997334324
 20
15.33478006632529
 30
-67.08829891742
 10
388.7523101745324
 20
14.87086102942529
 30
-66.84618393564
  0
SPLINE
  5
1F8F
330
1F49
100
AcDbEntity
  8
0
100
AcDbSpline
 70
     0
 71
     3
 72
    10
 73
     6
 74
     0
 42
0.0000000001
 43
0.0000000001
 40
0.0
 40
0.0
 40
0.0
 40
0.0
 40
0.3333333333333
 40
0.6666666666667
 40
1.0
 40
1.0
 40
1.0
 40
1.0
 10
464.8725382283322
 20
195.9999983185252
 30
-66.38724981572
 10
464.8725343638324
 20
183.7856850991053
 30
-66.38725202098
 10
464.5112502691321
 20
159.3123401089951
 30
-66.57102817849
 10
462.836184613532
 20
122.1241204143252
 30
-67.42339629478999
 10
461.0021752677321
 20
97.78812551858528
 30
-68.35727875185
 10
459.9104529863324
 20
85.67600221492529
 30
-68.91351619437
  0
LINE
  5
1F90
330
1F49
100
AcDbEntity
  8
0
100
AcDbLine
 10
447.5698094005465
 20
50.34149910509376
 30
-69.01715078804031
 11
447.5698340069715
 21
50.34147325096433
 31
-69.01773897838487
  0
LINE
  5
1F91
330
1F49
100
AcDbEntity
  8
0
100
AcDbLine
 10
459.8888285443604
 20
85.44458146948107
 30
-68.91725023048178
 11
459.8888479908214
 21
85.44457026928109
 31
-68.91760450375065
  0
SPLINE
  5
1F92
330
1F49
100
AcDbEntity
  8
0
100
AcDbSpline
 70
     0
 71
     3
 72
    16
 73
    12
 74
     0
 42
0.0000000001
 43
0.0000000001
 40
0.0
 40
0.0
 40
0.0
 40
0.0
 40
0.1111111111111
 40
0.2222222222222
 40
0.3333333333333
 40
0.4444444444444002
 40
0.5555555555556
 40
0.6666666666667
 40
0.7777777777778
 40
0.8888888888889001
 40
1.0
 40
1.0
 40
1.0
 40
1.0
 10
417.4699579951321
 20
87.2678663963253
 30
-22.41433755694
 10
417.3902560216323
 20
86.38242923632526
 30
-22.45677456781999
 10
417.134786632032
 20
84.49242919012528
 30
-22.53613497256
 10
416.342680950432
 20
81.31849800862529
 30
-22.6216162089
 10
414.9935297641323
 20
77.82054290812528
 30
-22.65330781588
 10
412.9295482174319
 20
74.06992371302528
 30
-22.60659771218999
 10
410.001855871932
 20
70.21385865522528
 30
-22.45418648233
 10
406.3149148486322
 20
66.74404365402529
 30
-22.17984490482999
 10
401.7135497575321
 20
63.7909967386253
 30
-21.7546915614
 10
396.3421280976322
 20
61.67533233332529
 30
-21.17906199959
 10
392.4901680453322
 20
60.97022702682528
 30
-20.71826645774
 10
390.4815494976324
 20
60.79196903972526
 30
-20.46714168816
  0
SPLINE
  5
1F93
330
1F49
100
AcDbEntity
  8
0
100
AcDbSpline
 70
     0
 71
     3
 72
    10
 73
     6
 74
     0
 42
0.0000000001
 43
0.0000000001
 40
0.0
 40
0.0
 40
0.0
 40
0.0
 40
0.3333333333333
 40
0.6666666666667
 40
1.0
 40
1.0
 40
1.0
 40
1.0
 10
459.9104560678323
 20
306.3239947082253
 30
-68.91351601593
 10
461.0032638248322
 20
294.1998307604253
 30
-68.3567255037
 10
462.8378173123324
 20
269.8479462993152
 30
-67.42256450558
 10
464.5112429655323
 20
232.6813864897153
 30
-66.57103241919
 10
464.8725352106321
 20
208.2117350498953
 30
-66.38725159812
 10
464.8725382283322
 20
195.9999983185252
 30
-66.38724981572
  0
SPLINE
  5
1F94
330
1F49
100
AcDbEntity
  8
0
100
AcDbSpline
 70
     0
 71
     3
 72
    16
 73
    12
 74
     0
 42
0.0000000001
 43
0.0000000001
 40
0.0
 40
0.0
 40
0.0
 40
0.0
 40
0.1111111111111
 40
0.2222222222222
 40
0.3333333333333
 40
0.4444444444444002
 40
0.5555555555556
 40
0.6666666666667
 40
0.7777777777778
 40
0.8888888888889001
 40
1.0
 40
1.0
 40
1.0
 40
1.0
 10
390.4815494718322
 20
331.2080275824253
 30
-20.46714188375
 10
392.4967537414323
 20
331.0291712258252
 30
-20.71908920892
 10
396.3592952105323
 20
330.3207440409253
 30
-21.18107006989
 10
401.739322356332
 20
328.1964297981252
 30
-21.75731068681999
 10
406.3404740488322
 20
325.2360268151253
 30
-22.18199409413
 10
410.0230688715322
 20
321.7623270326253
 30
-22.45553528612
 10
412.9439495019322
 20
317.9072452218253
 30
-22.60712073642
 10
415.0002213605321
 20
314.1640860416253
 30
-22.65326895084
 10
416.3447114632321
 20
310.6740036807253
 30
-22.62143532694
 10
417.1348068799325
 20
307.5066159543252
 30
-22.53608076237
 10
417.3902478751323
 20
305.6176843026253
 30
-22.45678058550999
 10
417.4699579813323
 20
304.7321302350253
 30
-22.41433765049
  0
SPLINE
  5
1F95
330
1F49
100
AcDbEntity
  8
CENTER
100
AcDbSpline
210
0.0
220
1.0
230
0.0
 70
     8
 71
     3
 72
    12
 73
     8
 74
     0
 42
0.0000000001
 43
0.0000000001
 40
0.0
 40
0.0
 40
0.0
 40
0.0
 40
7.005723030608637
 40
7.005723030608637
 40
245.6017088399833
 40
245.6017088399833
 40
256.746480249695
 40
256.746480249695
 40
256.746480249695
 40
256.746480249695
 10
164.1183730876482
 20
195.9999983185252
 30
0.0
 10
166.4523090047173
 20
195.9999983185252
 30
-0.078062223564637
 10
168.7886494136564
 20
195.9999983185252
 30
-0.0439161122723288
 10
250.6529959134585
 20
195.9999983185252
 30
-0.73177386264756
 10
330.3168631750576
 20
195.9999983185252
 30
-6.659937265633337
 10
412.7317125318385
 20
195.9999983185252
 30
-18.40055652743197
 10
416.4074180926359
 20
195.9999983185252
 30
-18.93906568266539
 10
420.0831043974848
 20
195.9999983185252
 30
-19.47757199851043
  0
ARC
  5
1F96
330
1F49
100
AcDbEntity
  8
CENTER
100
AcDbCircle
 10
155.1250050075323
 20
-1811.55796018251
 30
-195.9999983185252
 40
1811.561924547453
210
0.0
220
-1.0
230
0.0
100
AcDbArc
 50
81.69842562243172
 51
89.63304385485598
  0
ARC
  5
1F97
330
1F49
100
AcDbEntity
  8
CENTER
100
AcDbCircle
 10
-156.0000050075323
 20
-1800.0
 30
195.9999983185252
 40
1800.0
210
0.0
220
1.0
230
0.0
100
AcDbArc
 50
90.0
 51
98.50956631231237
  0
ARC
  5
1F98
330
1F49
100
AcDbEntity
  8
0
100
AcDbCircle
 10
156.084335072529
 20
-1803.243034325515
 30
-195.9999983185252
 40
1803.243035133616
210
0.0
220
-1.0
230
0.0
100
AcDbArc
 50
90.00530298458398
 51
93.0561286242422
  0
ARC
  5
1F99
330
1F49
100
AcDbEntity
  8
0
100
AcDbCircle
 10
156.0000050075323
 20
-1800.0
 30
-195.9999983185252
 40
1800.0
210
0.0
220
-1.0
230
0.0
100
AcDbArc
 50
90.0
 51
93.21033995788001
  0
SPLINE
  5
1F9A
330
1F49
100
AcDbEntity
  8
0
100
AcDbSpline
 70
     0
 71
     3
 72
    13
 73
     9
 74
     0
 42
0.0000000001
 43
0.0000000001
 40
0.0
 40
0.0
 40
0.0
 40
0.0
 40
0.1666666666667
 40
0.3333333333333
 40
0.5
 40
0.6666666666667
 40
0.8333333333332999
 40
1.0
 40
1.0
 40
1.0
 40
1.0
 10
60.0527512398321
 20
87.35613880012527
 30
-5.845425777794
 10
59.40285732953225
 20
94.61226199472529
 30
-5.440791040926
 10
58.29301224333221
 20
108.4722685908352
 30
-4.750059667092998
 10
57.0914982168324
 20
127.2874087153953
 30
-4.002650600228998
 10
56.21840373993244
 20
145.1233408075052
 30
-3.459734050714998
 10
55.62343419253238
 20
162.3028285971253
 30
-3.089860668042998
 10
55.27379286763244
 20
179.2532537366851
 30
-2.872536390606998
 10
55.1969651755321
 20
190.3383560076933
 30
-2.824786837796998
 10
55.19696480233233
 20
195.9999983185252
 30
-2.824786768656
  0
SPLINE
  5
1F9B
330
1F49
100
AcDbEntity
  8
0
100
AcDbSpline
 70
     0
 71
     3
 72
    15
 73
    11
 74
     0
 42
0.0000000001
 43
0.0000000001
 40
0.0
 40
0.0
 40
0.0
 40
0.0
 40
0.125
 40
0.25
 40
0.375
 40
0.5
 40
0.625
 40
0.75
 40
0.875
 40
1.0
 40
1.0
 40
1.0
 40
1.0
 10
86.17248631323219
 20
61.64963118772528
 30
-6.379612140605
 10
84.33626349713222
 20
61.82310233802528
 30
-6.438105540589
 10
80.81252830673248
 20
62.47168832192528
 30
-6.532421117959
 10
76.08993151903224
 20
64.23978112052529
 30
-6.606055571391999
 10
71.85304348203226
 20
66.73317910982527
 30
-6.618536813537
 10
68.20358325063216
 20
69.84416055872529
 30
-6.571844959875998
 10
64.95740034453229
 20
73.76762886862528
 30
-6.461769316202
 10
62.40186037893227
 20
78.19027459452531
 30
-6.297524755495
 10
60.73305185903246
 20
82.75382613292526
 30
-6.091696358771
 10
60.19005468393243
 20
85.82035092482525
 30
-5.931079338497998
 10
60.0527512398321
 20
87.35613880012527
 30
-5.845425777794
  0
SPLINE
  5
1F9C
330
1F49
100
AcDbEntity
  8
0
100
AcDbSpline
 70
     0
 71
     3
 72
    13
 73
     9
 74
     0
 42
0.0000000001
 43
0.0000000001
 40
0.0
 40
0.0
 40
0.0
 40
0.0
 40
0.1666666666667
 40
0.3333333333333
 40
0.5
 40
0.6666666666667
 40
0.8333333333332999
 40
1.0
 40
1.0
 40
1.0
 40
1.0
 10
55.19696480233233
 20
195.9999983185252
 30
-2.824786768656
 10
55.19696523903212
 20
201.6559870280113
 30
-2.824786846253
 10
55.27362740203216
 20
212.7282937593853
 30
-2.872433573542
 10
55.62240218393252
 20
229.6533882829252
 30
-3.089219184631998
 10
56.21501640303222
 20
246.7928713310753
 30
-3.457628143845
 10
57.0878863306325
 20
264.6570291133252
 30
-4.000403802283
 10
58.29649158703251
 20
283.5802495026253
 30
-4.752224177656
 10
59.40532959813207
 20
297.4153375640252
 30
-5.442330036369998
 10
60.05275122533248
 20
304.6438578535252
 30
-5.845425505568998
  0
LINE
  5
1F9D
330
1F49
100
AcDbEntity
  8
0
100
AcDbLine
 10
55.7037602553678
 20
231.133586859488
 30
-3.139879071150351
 11
55.70732690956129
 21
231.2535653537162
 31
-3.142029912734691
  0
SPLINE
  5
1F9E
330
1F49
100
AcDbEntity
  8
0
100
AcDbSpline
 70
     0
 71
     3
 72
    15
 73
    11
 74
     0
 42
0.0000000001
 43
0.0000000001
 40
0.0
 40
0.0
 40
0.0
 40
0.0
 40
0.125
 40
0.25
 40
0.375
 40
0.5
 40
0.625
 40
0.75
 40
0.875
 40
1.0
 40
1.0
 40
1.0
 40
1.0
 10
60.05275122533248
 20
304.6438578535252
 30
-5.845425505568998
 10
60.19035400523216
 20
306.1831579145252
 30
-5.931275639588998
 10
60.73492136093229
 20
309.2556039914252
 30
-6.092182478528998
 10
62.41054240423228
 20
313.8291717192253
 30
-6.298342414780998
 10
64.96942053323209
 20
318.2487997907252
 30
-6.462287478203998
 10
68.21040403213237
 20
322.1620369201252
 30
-6.571955053433
 10
71.85787304613223
 20
325.2702529934253
 30
-6.618558531774
 10
76.0944173726325
 20
327.7622392743253
 30
-6.606005476955998
 10
80.81569960783236
 20
329.5290361102253
 30
-6.532344750206998
 10
84.33746751013222
 20
330.1770243443252
 30
-6.438068011086
 10
86.17248630603217
 20
330.3503654631252
 30
-6.379611956938998
  0
LINE
  5
1F9F
330
1F49
100
AcDbEntity
  8
0
100
AcDbLine
 10
203.5742631178599
 20
337.2664368600504
 30
-6.182706275246046
 11
203.6743710785521
 21
337.2601736538637
 31
-6.184870817556649
  0
LINE
  5
1FA0
330
1F49
100
AcDbEntity
  8
0
100
AcDbLine
 10
389.4207392355323
 20
384.0698806637253
 30
-180.8512676784
 11
388.7523090404325
 21
377.1291238461253
 31
-66.84618465816
  0
LINE
  5
1FA1
330
1F49
100
AcDbEntity
  8
0
100
AcDbLine
 10
82.57927087683219
 20
384.0698796548252
 30
-180.8512677404
 11
83.32800316343218
 21
376.2952926187252
 31
-53.14997482945
  0
ARC
  5
1FA2
330
1F49
100
AcDbEntity
  8
0
100
AcDbCircle
 10
-236.0000050075323
 20
-1209.000001681613
 30
240.0
 40
1601.0
210
0.0
220
0.0
230
-1.0
100
AcDbArc
 50
84.4990894657926
 51
95.5009105342116
  0
ARC
  5
1FA3
330
1F49
100
AcDbEntity
  8
0
100
AcDbCircle
 10
236.0000050075323
 20
-1209.000001681613
 30
-199.1658290231999
 40
1601.0
100
AcDbArc
 50
84.4990894657926
 51
95.5009105342116
  0
ARC
  5
1FA4
330
1F49
100
AcDbEntity
  8
0
100
AcDbCircle
 10
236.0000050075323
 20
-1209.000001681613
 30
-180.8512672143999
 40
1600.440439532
100
AcDbArc
 50
84.4990894657926
 51
95.5009105342058
  0
LINE
  5
1FA5
330
1F49
100
AcDbEntity
  8
0
100
AcDbLine
 10
82.52562957263217
 20
384.6268731185253
 30
-199.1658289896
 11
82.52562957203236
 21
384.6268731185253
 31
-240.0
  0
ARC
  5
1FA6
330
1F49
100
AcDbEntity
  8
0
100
AcDbCircle
 10
-74.94461371866811
 20
-199.16599613968
 30
-119.0162079849027
 40
299.9998671956999
210
-0.9953946873063078
220
-0.0958614441820908
230
-0.0000013044063695
100
AcDbArc
 50
176.4999966387138
 51
179.9999977264182
  0
LINE
  5
1FA7
330
1F49
100
AcDbEntity
  8
0
100
AcDbLine
 10
389.4743804430323
 20
384.6268731185253
 30
-199.1658289896
 11
389.4743804430323
 21
384.6268731185253
 31
-240.0
  0
ARC
  5
1FA8
330
1F49
100
AcDbEntity
  8
0
100
AcDbCircle
 10
-120.1911674316736
 20
-199.1658289896133
 30
-350.8097880020482
 40
300.0
210
-0.9953946750781119
220
0.0958615711645712
230
0.0
100
AcDbArc
 50
176.5000000000004
 51
179.9999999999986
  0
SPLINE
  5
1FA9
330
1F49
100
AcDbEntity
  8
0
100
AcDbSpline
 70
     0
 71
     3
 72
    18
 73
    14
 74
     0
 42
0.0000000001
 43
0.0000000001
 40
0.0
 40
0.0
 40
0.0
 40
0.0
 40
0.09090909090909
 40
0.1818181818182
 40
0.2727272727273
 40
0.3636363636364
 40
0.4545454545455
 40
0.5454545454545002
 40
0.6363636363636001
 40
0.7272727272727
 40
0.8181818181818
 40
0.9090909090908997
 40
1.0
 40
1.0
 40
1.0
 40
1.0
 10
83.32800316343218
 20
376.2952926187252
 30
-53.14997482945
 10
91.3487003374321
 20
377.0525144448253
 30
-52.90241078201
 10
107.3680962516323
 20
378.4483434996253
 30
-52.50409294014
 10
131.4081116780321
 20
380.1934866152253
 30
-52.19425615093999
 10
155.2081325767421
 20
381.5785802632253
 30
-52.16961742310999
 10
179.030791696492
 20
382.6262476289252
 30
-52.42383484609
 10
203.1660407406224
 20
383.3425097081252
 30
-52.96567874386
 10
227.9387607994821
 20
383.7166785339253
 30
-53.81948154609
 10
253.8445529934123
 20
383.7210157431253
 30
-55.03185775003998
 10
282.3696758879123
 20
383.2702751339252
 30
-56.74378182687
 10
314.4295526180122
 20
382.1844019624252
 30
-59.14870737484
 10
349.7912869590322
 20
380.2700635075252
 30
-62.39883711819
 10
375.4224320989324
 20
378.3136527272253
 30
-65.23168418103999
 10
388.7523090404325
 20
377.1291238461253
 30
-66.84618465816
  0
LINE
  5
1FAA
330
1F49
100
AcDbEntity
  8
0
100
AcDbLine
 10
434.5326130027415
 20
357.0377399865516
 30
-68.70389645052354
 11
434.5325956631335
 21
357.0376062636639
 31
-68.70203956212313
  0
ENDBLK
  5
1FAB
330
1F49
100
AcDbEntity
  8
0
100
AcDbBlockEnd
  0
BLOCK
  5
1FAD
330
1FAC
100
AcDbEntity
  8
0
100
AcDbBlockBegin
  2
A$C0CDF4DE3
 70
     0
 10
0.0
 20
0.0
 30
0.0
  3
A$C0CDF4DE3
  1

  0
LINE
  5
1FAE
330
1FAC
100
AcDbEntity
  8
0
100
AcDbLine
 10
410.9544394321501
 20
170.9999988045252
 30
-61.15596178328463
 11
416.6269594215123
 21
170.9999988045252
 31
-153.9008437958416
  0
LINE
  5
1FAF
330
1FAC
100
AcDbEntity
  8
0
100
AcDbLine
 10
338.5281339363014
 20
13.14007073342537
 30
-61.17287198726
 11
339.1452732263015
 21
7.502252168925365
 31
-153.9008457111459
  0
LINE
  5
1FB0
330
1FAC
100
AcDbEntity
  8
0
100
AcDbLine
 10
404.7330183385015
 20
77.56214712646539
 30
-62.59327204064
 11
410.2669656351016
 21
76.81137703406538
 31
-153.900845639233
  0
LINE
  5
1FB1
330
1FAC
100
AcDbEntity
  8
0
100
AcDbLine
 10
404.7330383703014
 20
264.4378532040154
 30
-62.59327080430999
 11
410.2669644701018
 21
265.1886204167353
 31
-153.9008457111439
  0
LINE
  5
1FB2
330
1FAC
100
AcDbEntity
  8
0
100
AcDbLine
 10
338.5281318238016
 20
328.8599076085254
 30
-61.17287317239
 11
339.1452733544015
 21
334.4977466089253
 31
-153.9008456392319
  0
LINE
  5
1FB3
330
1FAC
100
AcDbEntity
  8
0
100
AcDbLine
 10
0.3730401625516606
 20
170.9999988045254
 30
-153.9008439211068
 11
6.797601250540536
 21
170.9999988045254
 31
-48.86019863625591
  0
LINE
  5
1FB4
330
1FAC
100
AcDbEntity
  8
0
100
AcDbLine
 10
12.98481523470172
 20
264.3404646163253
 30
-50.74894001589999
 11
6.7330299783016
 21
265.1886211152453
 31
-153.900845393699
  0
LINE
  5
1FB5
330
1FAC
100
AcDbEntity
  8
0
100
AcDbLine
 10
12.98480472870142
 20
77.65953156598539
 30
-50.7489393675
 11
6.733030930201493
 21
76.81137662308538
 31
-153.900845452454
  0
LINE
  5
1FB6
330
1FAC
100
AcDbEntity
  8
0
100
AcDbLine
 10
78.53882194880134
 20
13.75174373562538
 30
-51.1123882614
 11
77.85472579960151
 21
7.502247009625364
 31
-153.900845393698
  0
LINE
  5
1FB7
330
1FAC
100
AcDbEntity
  8
0
100
AcDbLine
 10
78.53882080150151
 20
328.2482643410253
 30
-51.1123876173
 11
77.85472590420159
 21
334.4977496445252
 31
-153.900845452455
  0
ARC
  5
1FB8
330
1FAC
100
AcDbEntity
  8
0
100
AcDbCircle
 10
208.4999997957015
 20
1200.999998804676
 30
-166.110552667722
 40
1201.0
100
AcDbArc
 50
263.7530354583224
 51
276.2469645416707
  0
ARC
  5
1FB9
330
1FAC
100
AcDbEntity
  8
0
100
AcDbCircle
 10
208.4999997957015
 20
1200.999998804676
 30
-153.900844781736
 40
1200.626959685999
100
AcDbArc
 50
263.7530354583224
 51
276.2469645416704
  0
ARC
  5
1FBA
330
1FAC
100
AcDbEntity
  8
0
100
AcDbCircle
 10
208.4999997957015
 20
-859.000001195625
 30
-166.110552667723
 40
1201.0
100
AcDbArc
 50
83.75303545832258
 51
96.24696454167075
  0
ARC
  5
1FBB
330
1FAC
100
AcDbEntity
  8
0
100
AcDbCircle
 10
208.4999997957015
 20
-859.000001195625
 30
-153.900844781736
 40
1200.626959685999
100
AcDbArc
 50
83.75303545832258
 51
96.24696454167041
  0
LINE
  5
1FBC
330
1FAC
100
AcDbEntity
  8
0
100
AcDbLine
 10
77.81413257180156
 20
334.8685862579253
 30
-166.1105526597179
 11
77.81413257100166
 21
334.8685862578254
 31
-210.0
  0
LINE
  5
1FBD
330
1FAC
100
AcDbEntity
  8
0
100
AcDbLine
 10
77.81413257100166
 20
7.131411351225381
 30
-166.110552659717
 11
77.81413257100166
 21
7.131411351225381
 31
-210.0
  0
LINE
  5
1FBE
330
1FAC
100
AcDbEntity
  8
0
100
AcDbLine
 10
-0.0000002042984306
 20
170.9999988045252
 30
-209.9999999669162
 11
-0.0000002042984306
 21
170.9999988045252
 31
-166.1105530360094
  0
LINE
  5
1FBF
330
1FAC
100
AcDbEntity
  8
0
100
AcDbLine
 10
6.363365572301518
 20
265.2387721135153
 30
-166.110552659717
 11
6.363365572301518
 21
265.2387721135053
 31
-210.0
  0
LINE
  5
1FC0
330
1FAC
100
AcDbEntity
  8
0
100
AcDbLine
 10
6.363365572201472
 20
76.76122549637537
 30
-166.1105526597179
 11
6.363365572301518
 21
76.76122549554538
 31
-210.0
  0
ARC
  5
1FC1
330
1FAC
100
AcDbEntity
  8
DIM
100
AcDbCircle
 10
86.62808305393401
 20
254.349556407894
 30
-210.0
 40
80.99999932771433
100
AcDbArc
 50
96.24696416998329
 51
172.27406375336
  0
SPLINE
  5
1FC2
330
1FAC
100
AcDbEntity
  8
0
100
AcDbSpline
 70
     0
 71
     3
 72
    15
 73
    11
 74
     0
 42
0.0000000001
 43
0.0000000001
 40
0.0
 40
0.0
 40
0.0
 40
0.0
 40
0.125
 40
0.25
 40
0.375
 40
0.5
 40
0.625
 40
0.75
 40
0.875
 40
1.0
 40
1.0
 40
1.0
 40
1.0
 10
77.81413257180156
 20
334.8685862579253
 30
-166.1105526597179
 10
73.42126121220144
 20
334.3875683270254
 30
-166.110585925223
 10
64.67880646830145
 20
332.6995973944253
 30
-166.1292675314099
 10
52.08855169010167
 20
328.0308991414254
 30
-166.198677736585
 10
40.28717496210173
 20
321.2458373740254
 30
-166.258178937207
 10
29.82845139310166
 20
312.6222720122253
 30
-166.2988160887219
 10
20.9344044639015
 20
302.3809324272253
 30
-166.2580753509919
 10
13.85050247210165
 20
290.7543366825253
 30
-166.198534200379
 10
8.865633163801703
 20
278.2950039472253
 30
-166.129193969532
 10
6.956594779601799
 20
269.6103377503554
 30
-166.110584410117
 10
6.363365572301518
 20
265.2387721135153
 30
-166.110552659717
  0
SPLINE
  5
1FC3
330
1FAC
100
AcDbEntity
  8
0
100
AcDbSpline
 70
     0
 71
     3
 72
    15
 73
    11
 74
     0
 42
0.0000000001
 43
0.0000000001
 40
0.0
 40
0.0
 40
0.0
 40
0.0
 40
0.125
 40
0.25
 40
0.375
 40
0.5
 40
0.625
 40
0.75
 40
0.875
 40
1.0
 40
1.0
 40
1.0
 40
1.0
 10
77.85472590420159
 20
334.4977496445252
 30
-153.900845452455
 10
73.49640602640147
 20
334.0205176992254
 30
-153.900935771613
 10
64.81213419160167
 20
332.3444491179254
 30
-153.8823003922269
 10
52.29104747380143
 20
327.6997068426254
 30
-153.8134497105689
 10
40.53984802050172
 20
320.9441942504254
 30
-153.7542312975789
 10
30.10471717210156
 20
312.3388478282254
 30
-153.7135829581599
 10
21.22940159190148
 20
302.1205286351254
 30
-153.754332437527
 10
14.17642620800143
 20
290.5434967760253
 30
-153.813593366304
 10
9.217222102901358
 20
278.1525752512254
 30
-153.8823726020569
 10
7.321587221201752
 20
269.5257760025453
 30
-153.9009295602479
 10
6.7330299783016
 20
265.1886211152453
 30
-153.900845393699
  0
ARC
  5
1FC4
330
1FAC
100
AcDbEntity
  8
0
100
AcDbCircle
 10
215.5563492038388
 20
-166.1105526597285
 30
76.57608148320014
 40
200.0
210
0.9940621044575054
220
-0.1088142108436006
230
0.0
100
AcDbArc
 50
176.4999999999997
 51
179.999999999999
  0
ARC
  5
1FC5
330
1FAC
100
AcDbEntity
  8
0
100
AcDbCircle
 10
170.648288624785
 20
-166.1105526597278
 30
-263.6865102584255
 40
200.0
210
-0.1344347693403038
220
-0.9909224453974283
230
0.0
100
AcDbArc
 50
176.5000000000005
 51
179.9999999999996
  0
ARC
  5
1FC6
330
1FAC
100
AcDbEntity
  8
0
100
AcDbCircle
 10
202.4144444675816
 20
-166.1959454805744
 30
-170.9999988045254
 40
202.4136833036552
210
0.0
220
-1.0
230
0.0
100
AcDbArc
 50
176.5232577767617
 51
179.9701666199747
  0
ARC
  5
1FC7
330
1FAC
100
AcDbEntity
  8
0
100
AcDbCircle
 10
216.6249213175861
 20
-166.1108779578457
 30
-75.20828246790182
 40
199.9999189375
210
0.1344344725459019
220
-0.9909224856532144
230
-0.0000042614710845
100
AcDbArc
 50
176.499998005688
 51
179.9999986252512
  0
ARC
  5
1FC8
330
1FAC
100
AcDbEntity
  8
0
100
AcDbCircle
 10
700.9999997957848
 20
170.9999988045252
 30
-166.110552784626
 40
701.0
100
AcDbArc
 50
172.2740633816476
 51
187.7259366183556
  0
SPLINE
  5
1FC9
330
1FAC
100
AcDbEntity
  8
0
100
AcDbSpline
 70
     0
 71
     3
 72
    15
 73
    11
 74
     0
 42
0.0000000001
 43
0.0000000001
 40
0.0
 40
0.0
 40
0.0
 40
0.0
 40
0.125
 40
0.25
 40
0.375
 40
0.5
 40
0.625
 40
0.75
 40
0.875
 40
1.0
 40
1.0
 40
1.0
 40
1.0
 10
6.363365572201472
 20
76.76122549637537
 30
-166.1105526597179
 10
6.957603557901619
 20
72.38223266138539
 30
-166.110585925223
 10
8.870655500401426
 20
63.68625697812537
 30
-166.1292675314099
 10
13.8627537500015
 20
51.22069586662536
 30
-166.1986777365839
 10
20.95014948450171
 20
39.59837348372536
 30
-166.2581789372099
 10
29.84078237660151
 20
29.36570887372537
 30
-166.2988160887229
 10
40.30826614710167
 20
20.73895451372539
 30
-166.2580753509909
 10
52.11382463980135
 20
13.95749562072538
 30
-166.198534200376
 10
64.69766653740134
 20
9.295863146125384
 30
-166.129193969531
 10
73.42871197200157
 20
7.611612536125362
 30
-166.110584410117
 10
77.81413257100166
 20
7.131411351225381
 30
-166.110552659717
  0
ARC
  5
1FCA
330
1FAC
100
AcDbEntity
  8
0
100
AcDbCircle
 10
700.9999997957848
 20
170.9999988045252
 30
-153.90084493592
 40
700.6269596956
100
AcDbArc
 50
172.2740633816476
 51
187.7259366183571
  0
SPLINE
  5
1FCB
330
1FAC
100
AcDbEntity
  8
0
100
AcDbSpline
 70
     0
 71
     3
 72
    15
 73
    11
 74
     0
 42
0.0000000001
 43
0.0000000001
 40
0.0
 40
0.0
 40
0.0
 40
0.0
 40
0.125
 40
0.25
 40
0.375
 40
0.5
 40
0.625
 40
0.75
 40
0.875
 40
1.0
 40
1.0
 40
1.0
 40
1.0
 10
6.733030930201493
 20
76.81137662308538
 30
-153.900845452454
 10
7.322592415701365
 20
72.46682604307537
 30
-153.900935771612
 10
9.222244267201402
 20
63.82870668562538
 30
-153.8823003922279
 10
14.18860928750155
 20
51.43167228682536
 30
-153.813449710567
 10
21.24517061180176
 20
39.85874779672537
 30
-153.7542312975799
 10
30.11698170400177
 20
29.64919781562537
 30
-153.713582958159
 10
40.56096929430167
 20
21.04057440682538
 30
-153.754332437528
 10
52.31618219510163
 20
14.28875257182537
 30
-153.813593366306
 10
64.83097325170138
 20
9.651011052625364
 30
-153.88237260206
 10
73.50382507040149
 20
7.978665930225388
 30
-153.9009295602479
 10
77.85472579960151
 20
7.502247009625364
 30
-153.900845393698
  0
ARC
  5
1FCC
330
1FAC
100
AcDbEntity
  8
0
100
AcDbCircle
 10
-124.4129577996045
 20
-166.1110423716861
 30
-113.7897579558093
 40
199.9999189375
210
-0.9940621370395726
220
-0.108813913109297
230
-0.00000426147107
100
AcDbArc
 50
176.4999980056884
 51
179.9999986252518
  0
LINE
  5
1FCD
330
1FAC
100
AcDbEntity
  8
0
100
AcDbLine
 10
416.9999997957015
 20
170.9999988045254
 30
-166.110553356845
 11
416.9999997957015
 21
170.9999988045254
 31
-209.9999990796119
  0
LINE
  5
1FCE
330
1FAC
100
AcDbEntity
  8
0
100
AcDbLine
 10
410.6366340193017
 20
265.2387721120454
 30
-166.1105526597179
 11
410.6366340191016
 21
265.2387721135053
 31
-210.0
  0
LINE
  5
1FCF
330
1FAC
100
AcDbEntity
  8
0
100
AcDbLine
 10
410.6366340191016
 20
76.76122549553537
 30
-166.110552659717
 11
410.6366340191016
 21
76.76122549554538
 31
-210.0
  0
LINE
  5
1FD0
330
1FAC
100
AcDbEntity
  8
0
100
AcDbLine
 10
339.1858670204014
 20
334.8685862578254
 30
-166.110552659717
 11
339.1858670204014
 21
334.8685862578254
 31
-210.0
  0
LINE
  5
1FD1
330
1FAC
100
AcDbEntity
  8
0
100
AcDbLine
 10
339.1858670189017
 20
7.131411351025376
 30
-166.1105526597179
 11
339.1858670204014
 21
7.131411351225381
 31
-210.0
  0
SPLINE
  5
1FD2
330
1FAC
100
AcDbEntity
  8
0
100
AcDbSpline
 70
     0
 71
     3
 72
    15
 73
    11
 74
     0
 42
0.0000000001
 43
0.0000000001
 40
0.0
 40
0.0
 40
0.0
 40
0.0
 40
0.125
 40
0.25
 40
0.375
 40
0.5
 40
0.625
 40
0.75
 40
0.875
 40
1.0
 40
1.0
 40
1.0
 40
1.0
 10
410.6366340193017
 20
265.2387721120454
 30
-166.1105526597179
 10
410.0384185237015
 20
269.6467381226153
 30
-166.110594451903
 10
408.1121869920016
 20
278.3873147296254
 30
-166.1969005847319
 10
403.0653552027015
 20
290.9248044453253
 30
-166.4586215387479
 10
395.9878652667017
 20
302.4762748440254
 30
-166.7135300926269
 10
387.1621907012013
 20
312.6228700428254
 30
-166.857342857909
 10
376.7901473042015
 20
321.1849808339254
 30
-166.71357691028
 10
365.0632855285016
 20
327.9604729770253
 30
-166.4586879157899
 10
352.3997818479015
 20
332.6832040416253
 30
-166.1969766281659
 10
343.6097837858014
 20
334.3841215299253
 30
-166.110588636918
 10
339.1858670204014
 20
334.8685862578254
 30
-166.110552659717
  0
SPLINE
  5
1FD3
330
1FAC
100
AcDbEntity
  8
0
100
AcDbSpline
 70
     0
 71
     3
 72
    15
 73
    11
 74
     0
 42
0.0000000001
 43
0.0000000001
 40
0.0
 40
0.0
 40
0.0
 40
0.0
 40
0.125
 40
0.25
 40
0.375
 40
0.5
 40
0.625
 40
0.75
 40
0.875
 40
1.0
 40
1.0
 40
1.0
 40
1.0
 10
410.2669644701018
 20
265.1886204167353
 30
-153.9008457111439
 10
409.6790103391017
 20
269.5209879184454
 30
-153.9009462125759
 10
407.7803681077015
 20
278.1426297974253
 30
-153.817179732178
 10
402.7700089925015
 20
290.5788058493254
 30
-153.557887522697
 10
395.7201953855014
 20
302.0854196225254
 30
-153.304763864465
 10
386.8403721716012
 20
312.2923077963254
 30
-153.157155998921
 10
376.4060952222016
 20
320.9075095414253
 30
-153.3047421003759
 10
364.7251038523017
 20
327.6562336198252
 30
-153.5577831696089
 10
352.1635595549013
 20
332.3452472408254
 30
-153.817120639281
 10
343.4932805210014
 20
334.0215960583253
 30
-153.90093559616
 10
339.1452733544015
 20
334.4977466089253
 30
-153.9008456392319
  0
ARC
  5
1FD4
330
1FAC
100
AcDbEntity
  8
0
100
AcDbCircle
 10
-242.5663016697821
 20
-166.1091969027143
 30
207.6284705972845
 40
199.9999073708
210
-0.1344342977632944
220
0.9909225093529581
230
-0.0000065212211332
100
AcDbArc
 50
176.4999999851688
 51
180.0000005068157
  0
ARC
  5
1FD5
330
1FAC
100
AcDbEntity
  8
0
100
AcDbCircle
 10
212.3787736062153
 20
-166.23352536766
 30
-170.9999988045254
 40
204.6228883510099
210
0.0
220
-1.0
230
0.0
100
AcDbArc
 50
0.0400336853407595
 51
3.449772602871624
  0
ARC
  5
1FD6
330
1FAC
100
AcDbEntity
  8
0
100
AcDbCircle
 10
-196.5896799085522
 20
-166.1105526597278
 30
131.2682624587785
 40
200.0
210
0.1344347693385946
220
0.9909224453976602
230
0.0
100
AcDbArc
 50
176.5000000000003
 51
179.9999999999996
  0
ARC
  5
1FD7
330
1FAC
100
AcDbEntity
  8
0
100
AcDbCircle
 10
170.1809543763986
 20
-166.1083470545543
 30
337.9488783415581
 40
199.9999073708
210
0.99406215622024
220
0.1088137377735044
230
-0.0000065212210246
100
AcDbArc
 50
176.4999999851692
 51
180.0000005068163
  0
SPLINE
  5
1FD8
330
1FAC
100
AcDbEntity
  8
0
100
AcDbSpline
 70
     0
 71
     3
 72
    15
 73
    11
 74
     0
 42
0.0000000001
 43
0.0000000001
 40
0.0
 40
0.0
 40
0.0
 40
0.0
 40
0.125
 40
0.25
 40
0.375
 40
0.5
 40
0.625
 40
0.75
 40
0.875
 40
1.0
 40
1.0
 40
1.0
 40
1.0
 10
339.1858670189017
 20
7.131411351025376
 30
-166.1105526597179
 10
343.6078045620015
 20
7.615657667225376
 30
-166.110594451903
 10
352.3951855376017
 20
9.315652645725377
 30
-166.1969005847309
 10
365.0587576343014
 20
14.03720972272538
 30
-166.45862153875
 10
376.7890503122016
 20
20.81419768612537
 30
-166.7135300926259
 10
387.1600565640014
 20
29.37504781842537
 30
-166.85734285791
 10
395.9870181371015
 20
39.52264727932539
 30
-166.71357691028
 10
403.0629241993015
 20
51.07072652592538
 30
-166.4586879157889
 10
408.1109278193015
 20
63.60811754752538
 30
-166.1969766281659
 10
410.0381491006015
 20
72.35128655923538
 30
-166.110588636919
 10
410.6366340191016
 20
76.76122549553537
 30
-166.110552659717
  0
ARC
  5
1FD9
330
1FAC
100
AcDbEntity
  8
0
100
AcDbCircle
 10
-284.0000002043812
 20
170.9999988045254
 30
-166.1105527845589
 40
701.0
100
AcDbArc
 50
352.2740633816475
 51
7.725936618355746
  0
SPLINE
  5
1FDA
330
1FAC
100
AcDbEntity
  8
0
100
AcDbSpline
 70
     0
 71
     3
 72
    15
 73
    11
 74
     0
 42
0.0000000001
 43
0.0000000001
 40
0.0
 40
0.0
 40
0.0
 40
0.0
 40
0.125
 40
0.25
 40
0.375
 40
0.5
 40
0.625
 40
0.75
 40
0.875
 40
1.0
 40
1.0
 40
1.0
 40
1.0
 10
339.1452732263015
 20
7.502252168925365
 30
-153.9008457111459
 10
343.4913725985015
 20
7.978191741225373
 30
-153.9009462125779
 10
352.1591463858017
 20
9.653676323625376
 30
-153.8171797321759
 10
364.7204972077016
 20
14.34138778922536
 30
-153.5578875227
 10
376.4052338757015
 20
21.09186639602538
 30
-153.304763864463
 10
386.8379105969016
 20
29.70529097232537
 30
-153.157155998922
 10
395.7195516896018
 20
39.91373297232536
 30
-153.3047421003759
 10
402.7675146863016
 20
51.41664797962538
 30
-153.5577831696079
 10
407.7791805168017
 20
63.85298383382536
 30
-153.81712063928
 10
409.6787513559014
 20
72.47710781896538
 30
-153.900935596161
 10
410.2669656351016
 20
76.81137703406538
 30
-153.900845639233
  0
ARC
  5
1FDB
330
1FAC
100
AcDbEntity
  8
0
100
AcDbCircle
 10
-284.0000002043812
 20
170.9999988045254
 30
-153.90084493582
 40
700.6269596956
100
AcDbArc
 50
352.2740633816475
 51
7.725936618357374
  0
ARC
  5
1FDC
330
1FAC
100
AcDbEntity
  8
0
100
AcDbCircle
 10
-169.7884140211224
 20
-166.1105526597239
 30
-300.7333558202708
 40
200.0
210
-0.9940621044576147
220
0.1088142108426016
230
0.0
100
AcDbArc
 50
176.5000000000009
 51
180.0000000000001
  0
ARC
  5
1FDD
330
1FAC
100
AcDbEntity
  8
0
100
AcDbCircle
 10
140.4604202003534
 20
-1882.235709330795
 30
-170.9999988045254
 40
1882.238066174756
210
0.0
220
-1.0
230
0.0
100
AcDbArc
 50
90.0999744965471
 51
92.61658707951372
  0
ARC
  5
1FDE
330
1FAC
100
AcDbEntity
  8
0
100
AcDbCircle
 10
138.9896370051215
 20
-1822.194847244213
 30
-170.9999988045254
 40
1822.194849333758
210
0.0
220
-1.0
230
0.0
100
AcDbArc
 50
90.01759039325902
 51
92.50724945478129
  0
ARC
  5
1FDF
330
1FAC
100
AcDbEntity
  8
0
100
AcDbCircle
 10
138.4999997957016
 20
-1800.0
 30
-170.9999988045254
 40
1800.0
210
0.0
220
-1.0
230
0.0
100
AcDbArc
 50
90.0
 51
92.67900235436298
  0
SPLINE
  5
1FE0
330
1FAC
100
AcDbEntity
  8
0
100
AcDbSpline
 70
     0
 71
     3
 72
    18
 73
    14
 74
     0
 42
0.0000000001
 43
0.0000000001
 40
0.0
 40
0.0
 40
0.0
 40
0.0
 40
0.09090909090909
 40
0.1818181818182
 40
0.2727272727273
 40
0.3636363636364
 40
0.4545454545455
 40
0.5454545454545002
 40
0.6363636363636001
 40
0.7272727272727
 40
0.8181818181818
 40
0.9090909090908997
 40
1.0
 40
1.0
 40
1.0
 40
1.0
 10
338.6575048436016
 20
59.65760028352537
 30
-14.63173454810001
 10
328.4964240325015
 20
58.61140420812538
 30
-13.5578221181
 10
308.4380845443515
 20
56.80245637422537
 30
-11.59835333079999
 10
279.0633009293514
 20
54.87858654942538
 30
-9.180573700899998
 10
251.5013351834114
 20
53.72829221392537
 30
-7.318216502700011
 10
226.7555610144317
 20
53.22899135742537
 30
-5.975976494000008
 10
204.4883421842914
 20
53.20109878022538
 30
-5.028115303600002
 10
183.3155897840914
 20
53.54562979982538
 30
-4.355353524099996
 10
162.9071702366414
 20
54.22399799112537
 30
-3.919884253100008
 10
142.8169321057916
 20
55.22371888592537
 30
-3.695229586500004
 10
122.7978558878316
 20
56.54801818492538
 30
-3.672976350800012
 10
102.5433270652015
 20
58.22625743772538
 30
-3.858354509200012
 10
89.2274505719015
 20
59.55093972882536
 30
-4.116276335700007
 10
82.4113639572015
 20
60.28674846292537
 30
-4.283808868600003
  0
SPLINE
  5
1FE1
330
1FAC
100
AcDbEntity
  8
0
100
AcDbSpline
 70
     0
 71
     3
 72
    18
 73
    14
 74
     0
 42
0.0000000001
 43
0.0000000001
 40
0.0
 40
0.0
 40
0.0
 40
0.0
 40
0.09090909090909
 40
0.1818181818182
 40
0.2727272727273
 40
0.3636363636364
 40
0.4545454545455
 40
0.5454545454545002
 40
0.6363636363636001
 40
0.7272727272727
 40
0.8181818181818
 40
0.9090909090908997
 40
1.0
 40
1.0
 40
1.0
 40
1.0
 10
338.5281339363014
 20
13.14007073342537
 30
-61.17287198726
 10
328.2001902106017
 20
12.07388980242538
 30
-60.12688212192998
 10
307.8843743759417
 20
10.23690295872538
 30
-58.2252897637
 10
278.0679874917314
 20
8.277204321525374
 30
-55.8732691032
 10
250.1076187540515
 20
7.105531411125382
 30
-54.0629585253
 10
225.0006759946213
 20
6.595241255525364
 30
-52.7578923448
 10
202.4095483479904
 20
6.564367559125371
 30
-51.83635495499999
 10
180.9295183395915
 20
6.911948109725385
 30
-51.1822285863
 10
160.2244398040415
 20
7.598927576725373
 30
-50.75882072589998
 10
139.8480737213716
 20
8.611803204425369
 30
-50.54019457889999
 10
119.5235108168916
 20
9.956578936225383
 30
-50.5187354252
 10
99.0323383796017
 20
11.65312163452536
 30
-50.69740100129998
 10
85.37493408920136
 20
13.01334087522536
 30
-50.9513836676
 10
78.53882194880134
 20
13.75174373562538
 30
-51.1123882614
  0
SPLINE
  5
1FE2
330
1FAC
100
AcDbEntity
  8
0
100
AcDbSpline
 70
     0
 71
     3
 72
    18
 73
    14
 74
     0
 42
0.0000000001
 43
0.0000000001
 40
0.0
 40
0.0
 40
0.0
 40
0.0
 40
0.09090909090909
 40
0.1818181818182
 40
0.2727272727273
 40
0.3636363636364
 40
0.4545454545455
 40
0.5454545454545002
 40
0.6363636363636001
 40
0.7272727272727
 40
0.8181818181818
 40
0.9090909090908997
 40
1.0
 40
1.0
 40
1.0
 40
1.0
 10
82.41136394000159
 20
281.7132491798254
 30
-4.283808321399988
 10
89.31677317800177
 20
282.4587004577253
 30
-4.114080328999989
 10
102.7945511452017
 20
283.7979115216254
 30
-3.853993368700002
 10
123.2781773758315
 20
285.4889545967253
 30
-3.670314829400012
 10
143.5358947446315
 20
286.8190520719254
 30
-3.698970046699996
 10
163.8694416950116
 20
287.8169559511253
 30
-3.934902005600008
 10
184.5578160049817
 20
288.4861113369253
 30
-4.387730707799987
 10
206.0357186684214
 20
288.8112807405253
 30
-5.085160814200007
 10
228.7251616393114
 20
288.7517310704254
 30
-6.070177688299992
 10
254.0205781157715
 20
288.1931191702253
 30
-7.472007455200014
 10
281.5331028074615
 20
286.9833918988254
 30
-9.3691083617
 10
310.1935611760018
 20
285.0504146258253
 30
-11.76284978139999
 10
329.1801481236016
 20
283.3181966064253
 30
-13.63008483569998
 10
338.6575047541014
 20
282.3423972758254
 30
-14.6317353462
  0
SPLINE
  5
1FE3
330
1FAC
100
AcDbEntity
  8
0
100
AcDbSpline
 70
     0
 71
     3
 72
    18
 73
    14
 74
     0
 42
0.0000000001
 43
0.0000000001
 40
0.0
 40
0.0
 40
0.0
 40
0.0
 40
0.09090909090909
 40
0.1818181818182
 40
0.2727272727273
 40
0.3636363636364
 40
0.4545454545455
 40
0.5454545454545002
 40
0.6363636363636001
 40
0.7272727272727
 40
0.8181818181818
 40
0.9090909090908997
 40
1.0
 40
1.0
 40
1.0
 40
1.0
 10
78.53882080150151
 20
328.2482643410253
 30
-51.1123876173
 10
85.46136031420155
 20
328.9960026612253
 30
-50.9493474824
 10
99.28792078950166
 20
330.3714925133253
 30
-50.6931382593
 10
120.0094038804012
 20
332.0808118086254
 30
-50.5161667718
 10
140.5766518414916
 20
333.4315277700254
 30
-50.5438278349
 10
161.1999480666218
 20
334.4425402584254
 30
-50.773415109
 10
182.1893990937214
 20
335.1201533881253
 30
-51.2136977049
 10
203.9794547022033
 20
335.4480315118253
 30
-51.89182026160001
 10
226.9989748718617
 20
335.3849525329254
 30
-52.84947483089999
 10
252.6646922086015
 20
334.8142737936253
 30
-54.21255419409998
 10
280.5742259668513
 20
333.5822828919253
 30
-56.0565728566
 10
309.6708416401016
 20
331.6128859675254
 30
-58.38573982219998
 10
328.8875874338013
 20
329.8551266102254
 30
-60.19650132050998
 10
338.5281318238016
 20
328.8599076085254
 30
-61.17287317239
  0
ARC
  5
1FE4
330
1FAC
100
AcDbEntity
  8
0
100
AcDbCircle
 10
268.0160723314257
 20
-56.91873853789064
 30
112.0330085634508
 40
49.99999999856
210
0.9939269047356265
220
0.1072962989916028
230
0.0244297414100407
100
AcDbArc
 50
3.501046236497832
 51
86.30205809447371
  0
ARC
  5
1FE5
330
1FAC
100
AcDbEntity
  8
0
100
AcDbCircle
 10
-72.00764706548875
 20
-56.02208950866598
 30
-75.33831664329452
 40
49.99999995281999
210
-0.9939281103754995
220
0.1072849430451999
230
-0.02443056285019
100
AcDbArc
 50
3.50104739802635
 51
86.30194123301944
  0
ARC
  5
1FE6
330
1FAC
100
AcDbEntity
  8
0
100
AcDbCircle
 10
56.77016295017256
 20
-51.97995593510122
 30
-170.9999988045254
 40
50.0711241611251
210
0.0
220
-1.0
230
0.0
100
AcDbArc
 50
93.52626327905641
 51
176.2797709876003
  0
ARC
  5
1FE7
330
1FAC
100
AcDbEntity
  8
0
100
AcDbCircle
 10
-27.94078940609689
 20
-42.31060483056144
 30
265.6995064438829
 40
49.99999995037
210
0.131665822124698
220
0.9903437743894848
230
-0.0433972327714193
100
AcDbArc
 50
3.503320471442331
 51
87.15632620459393
  0
SPLINE
  5
1FE8
330
1FAC
100
AcDbEntity
  8
0
100
AcDbSpline
210
0.0000000000000231
220
1.0
230
-0.0000000000000223
 70
     8
 71
     3
 72
    14
 73
    10
 74
     0
 42
0.0000000001
 43
0.0000000001
 40
0.0
 40
0.0
 40
0.0
 40
0.0
 40
0.1428571428571
 40
0.2857142857143
 40
0.4285714285714002
 40
0.5714285714286002
 40
0.7142857142857002
 40
0.8571428571428999
 40
1.0
 40
1.0
 40
1.0
 40
1.0
 10
6.797601337701506
 20
170.9999988045254
 30
-48.86019814089999
 10
7.010246832301618
 20
170.9999988045254
 30
-45.38347507890001
 10
8.164790174501375
 20
170.9999988045256
 30
-38.47476073699999
 10
12.00902374130146
 20
170.9999988045258
 30
-28.69639468389999
 10
17.79836887480178
 20
170.9999988045258
 30
-19.92841266650001
 10
25.28088123540147
 20
170.9999988045258
 30
-12.5523571475
 10
34.13091645500163
 20
170.9999988045256
 30
-6.889239434699987
 10
43.96336121770173
 20
170.9999988045256
 30
-3.185510958900009
 10
50.88790932760139
 20
170.9999988045254
 30
-2.130078583699996
 10
54.36732238540162
 20
170.9999988045254
 30
-1.967271560400007
  0
ARC
  5
1FE9
330
1FAC
100
AcDbEntity
  8
0
100
AcDbCircle
 10
-73.013731032147
 20
-57.02292066598129
 30
72.99737932798253
 40
49.99999999658
210
-0.1316774943729972
220
0.9903422518915789
230
0.0433965620062891
100
AcDbArc
 50
3.503304581556474
 51
87.15643484767678
  0
SPLINE
  5
1FEA
330
1FAC
100
AcDbEntity
  8
0
100
AcDbSpline
 70
     0
 71
     3
 72
    15
 73
    11
 74
     0
 42
0.0000000001
 43
0.0000000001
 40
0.0
 40
0.0
 40
0.0
 40
0.0
 40
0.125
 40
0.25
 40
0.375
 40
0.5
 40
0.625
 40
0.75
 40
0.875
 40
1.0
 40
1.0
 40
1.0
 40
1.0
 10
12.98481523470172
 20
264.3404646163253
 30
-50.74894001589999
 10
13.61606690510143
 20
269.0190893045353
 30
-50.81096275330001
 10
15.75046483010146
 20
278.0075100999253
 30
-50.913715392
 10
21.23144442960164
 20
290.1752802019253
 30
-51.00905103079998
 10
27.5970038256014
 20
299.6862248165253
 30
-51.07304255599999
 10
34.7551705014016
 20
307.6772855133254
 30
-51.115480495
 10
43.06305013890141
 20
314.7311497937254
 30
-51.1637713029
 10
52.90145597840137
 20
320.8366056673253
 30
-51.18940618269999
 10
64.41644899050152
 20
325.6796408002252
 30
-51.1910620026
 10
73.65649100110158
 20
327.7156508727254
 30
-51.14865245949999
 10
78.53882080150151
 20
328.2482643410253
 30
-51.1123876173
  0
SPLINE
  5
1FEB
330
1FAC
100
AcDbEntity
  8
0
100
AcDbSpline
 70
     0
 71
     3
 72
    12
 73
     8
 74
     0
 42
0.0000000001
 43
0.0000000001
 40
0.0
 40
0.0
 40
0.0
 40
0.0
 40
0.2
 40
0.4
 40
0.6
 40
0.8
 40
1.0
 40
1.0
 40
1.0
 40
1.0
 10
12.98480472870142
 20
77.65953156598539
 30
-50.7489393675
 10
12.01255703950164
 20
84.96111433034537
 30
-50.45197682520001
 10
10.37551563890156
 20
99.01589419153538
 30
-49.95211729579999
 10
8.703257387501707
 20
118.0398829148054
 30
-49.4416852623
 10
7.585321615101746
 20
136.0965224302254
 30
-49.10053686809998
 10
6.940285738001421
 20
153.5906883236453
 30
-48.9037293223
 10
6.797601847501481
 20
165.2227246274514
 30
-48.8601983753
 10
6.797601337701506
 20
170.9999988045254
 30
-48.86019814089999
  0
SPLINE
  5
1FEC
330
1FAC
100
AcDbEntity
  8
0
100
AcDbSpline
 70
     0
 71
     3
 72
    15
 73
    11
 74
     0
 42
0.0000000001
 43
0.0000000001
 40
0.0
 40
0.0
 40
0.0
 40
0.0
 40
0.125
 40
0.25
 40
0.375
 40
0.5
 40
0.625
 40
0.75
 40
0.875
 40
1.0
 40
1.0
 40
1.0
 40
1.0
 10
78.53882194880134
 20
13.75174373562538
 30
-51.1123882614
 10
73.64544997570146
 20
14.28552992272537
 30
-51.14873778679999
 10
64.38919790660157
 20
16.32812105182537
 30
-51.1911267137
 10
52.87090054620148
 20
21.17909727692537
 30
-51.18937564060001
 10
43.03942751650175
 20
27.28675248612538
 30
-51.16364587439999
 10
34.74544318520157
 20
34.33331519612536
 30
-51.1154355492
 10
27.60089305980137
 20
42.31050665192538
 30
-51.0730375011
 10
21.24099624220162
 20
51.80715136962537
 30
-51.0091949949
 10
15.75047480950161
 20
63.98954789562537
 30
-50.91373888319999
 10
13.61623127030179
 20
72.97978672934539
 30
-50.8109918929
 10
12.98480472870142
 20
77.65953156598539
 30
-50.7489393675
  0
SPLINE
  5
1FED
330
1FAC
100
AcDbEntity
  8
0
100
AcDbSpline
 70
     0
 71
     3
 72
    12
 73
     8
 74
     0
 42
0.0000000001
 43
0.0000000001
 40
0.0
 40
0.0
 40
0.0
 40
0.0
 40
0.2
 40
0.4
 40
0.6
 40
0.8
 40
1.0
 40
1.0
 40
1.0
 40
1.0
 10
6.797601337701506
 20
170.9999988045254
 30
-48.86019814089999
 10
6.797601966301498
 20
176.7805693303023
 30
-48.8601984184
 10
6.940436821101683
 20
188.4176697406554
 30
-48.90377536519999
 10
7.585951130901776
 20
205.9162803447754
 30
-49.10072905379998
 10
8.704025098001693
 20
223.9698826432154
 30
-49.4419192367
 10
10.37620413400144
 20
242.9904812898754
 30
-49.9523286876
 10
12.01287800370164
 20
257.0412130080953
 30
-50.45207229259999
 10
12.98481523470172
 20
264.3404646163253
 30
-50.74894001589999
  0
SPLINE
  5
1FEE
330
1FAC
100
AcDbEntity
  8
0
100
AcDbSpline
 70
     0
 71
     3
 72
    12
 73
     8
 74
     0
 42
0.0000000001
 43
0.0000000001
 40
0.0
 40
0.0
 40
0.0
 40
0.0
 40
0.2
 40
0.4
 40
0.6
 40
0.8
 40
1.0
 40
1.0
 40
1.0
 40
1.0
 10
60.26531281100142
 20
81.89355151815538
 30
-3.909975904100007
 10
59.33386701590143
 20
88.89894807063535
 30
-3.603001465999994
 10
57.78074504650158
 20
102.2583708219052
 30
-3.091298795200002
 10
56.18303762970163
 20
120.4534810929853
 30
-2.565092312500012
 10
55.11801756550176
 20
137.6712720388453
 30
-2.214412049000002
 10
54.50279706850142
 20
154.4494361080253
 30
-2.011869316099989
 10
54.36732348700161
 20
165.3866273355714
 30
-1.967271682199992
 10
54.36732238540162
 20
170.9999988045254
 30
-1.967271560400007
  0
SPLINE
  5
1FEF
330
1FAC
100
AcDbEntity
  8
0
100
AcDbSpline
 70
     0
 71
     3
 72
    15
 73
    11
 74
     0
 42
0.0000000001
 43
0.0000000001
 40
0.0
 40
0.0
 40
0.0
 40
0.0
 40
0.125
 40
0.25
 40
0.375
 40
0.5
 40
0.625
 40
0.75
 40
0.875
 40
1.0
 40
1.0
 40
1.0
 40
1.0
 10
82.4113639572015
 20
60.28674846292537
 30
-4.283808868600003
 10
80.86156290880172
 20
60.45480198402538
 30
-4.321860327699994
 10
77.91816375920143
 20
61.09243360272538
 30
-4.378509575299999
 10
74.01768265820146
 20
62.72842040612538
 30
-4.415201338900003
 10
70.67110146540153
 20
64.80020052642537
 30
-4.414891237200008
 10
67.69161537440139
 20
67.32845012812538
 30
-4.382151761599999
 10
65.12671262190179
 20
70.20089427892537
 30
-4.321682424899988
 10
62.97063820940138
 20
73.43823575697536
 30
-4.231922514699988
 10
61.12482266410143
 20
77.56106873954536
 30
-4.091020349800004
 10
60.46308824540165
 20
80.41104663731539
 30
-3.974914631500012
 10
60.26531281100142
 20
81.89355151815538
 30
-3.909975904100007
  0
SPLINE
  5
1FF0
330
1FAC
100
AcDbEntity
  8
0
100
AcDbSpline
 70
     0
 71
     3
 72
    12
 73
     8
 74
     0
 42
0.0000000001
 43
0.0000000001
 40
0.0
 40
0.0
 40
0.0
 40
0.0
 40
0.2
 40
0.4
 40
0.6
 40
0.8
 40
1.0
 40
1.0
 40
1.0
 40
1.0
 10
54.36732238540162
 20
170.9999988045254
 30
-1.967271560400007
 10
54.3673237237017
 20
176.6130991994363
 30
-1.967271706100006
 10
54.50273527960144
 20
187.5501711598652
 30
-2.011849029100004
 10
55.1183976484017
 20
204.3371846459253
 30
-2.214537134599992
 10
56.18356782490173
 20
221.5532656907654
 30
-2.565266992000005
 10
57.78131500750169
 20
239.7469940639854
 30
-3.091486307100011
 10
59.3341495923014
 20
253.1031739672754
 30
-3.603095119399994
 10
60.26531283510166
 20
260.1064460634053
 30
-3.909976457200002
  0
SPLINE
  5
1FF1
330
1FAC
100
AcDbEntity
  8
0
100
AcDbSpline
 70
     0
 71
     3
 72
    15
 73
    11
 74
     0
 42
0.0000000001
 43
0.0000000001
 40
0.0
 40
0.0
 40
0.0
 40
0.0
 40
0.125
 40
0.25
 40
0.375
 40
0.5
 40
0.625
 40
0.75
 40
0.875
 40
1.0
 40
1.0
 40
1.0
 40
1.0
 10
60.26531283510166
 20
260.1064460634053
 30
-3.909976457200002
 10
60.46312138080157
 20
261.5885183943952
 30
-3.974893025999989
 10
61.12464606440153
 20
264.4378040479554
 30
-4.090972498199987
 10
62.96765929680169
 20
268.5560657716854
 30
-4.231740156699999
 10
65.12489198090134
 20
271.7974724134254
 30
-4.321659062999997
 10
67.69595652000134
 20
274.6761695921254
 30
-4.382243028000003
 10
70.67879411490139
 20
277.2055651013253
 30
-4.414939746699984
 10
74.02858502020172
 20
279.2772373041253
 30
-4.415150876199986
 10
77.92664757350165
 20
280.9097876214253
 30
-4.378365028699987
 10
80.86497826420146
 20
281.5456785138254
 30
-4.321781951100007
 10
82.41136394000159
 20
281.7132491798254
 30
-4.283808321399988
  0
ARC
  5
1FF2
330
1FAC
100
AcDbEntity
  8
0
100
AcDbCircle
 10
360.9167616690946
 20
-64.33104768076566
 30
-170.9999988045254
 40
50.13774190294729
210
0.0
220
-1.0
230
0.0
100
AcDbArc
 50
4.336301111018439
 51
82.20014257746163
  0
ARC
  5
1FF3
330
1FAC
100
AcDbEntity
  8
0
100
AcDbCircle
 10
386.2819609649487
 20
-58.73358624760077
 30
-210.4600904944498
 40
49.99999999411
210
0.1323615691404971
220
-0.9906521882137779
230
0.0329948026500993
100
AcDbArc
 50
3.501909194484424
 51
82.56818998183062
  0
SPLINE
  5
1FF4
330
1FAC
100
AcDbEntity
  8
0
100
AcDbSpline
210
-0.0000000000111317
220
-1.0
230
-0.000000000010041
 70
     8
 71
     3
 72
    13
 73
     9
 74
     0
 42
0.0000000001
 43
0.0000000001
 40
0.0
 40
0.0
 40
0.0
 40
0.0
 40
0.1666666666667
 40
0.3333333333333
 40
0.5
 40
0.6666666666667
 40
0.8333333333332999
 40
1.0
 40
1.0
 40
1.0
 40
1.0
 10
410.9544384781015
 20
170.9999988045265
 30
-61.15596076329
 10
410.7200469341013
 20
170.9999988044814
 30
-57.3236933439
 10
409.3645397854015
 20
170.9999988044133
 30
-49.7136026542
 10
404.7784980850015
 20
170.9999988043549
 30
-39.06411874789999
 10
397.8819773425016
 20
170.9999988043471
 30
-29.74315386789999
 10
389.0393622958018
 20
170.9999988043792
 30
-22.2431178256
 10
378.7177886671015
 20
170.9999988044428
 30
-16.9602768528
 10
371.2144611943017
 20
170.999998804497
 30
-15.10260261299999
 10
367.4062051211017
 20
170.9999988045254
 30
-14.6143418414
  0
ARC
  5
1FF5
330
1FAC
100
AcDbEntity
  8
0
100
AcDbCircle
 10
340.9919159807736
 20
-69.91851211308333
 30
-128.3361657101627
 40
49.99999993064
210
-0.1323428936370051
220
-0.9906545975190386
230
-0.0329973774439113
100
AcDbArc
 50
3.501906135885291
 51
82.56800849756769
  0
ARC
  5
1FF6
330
1FAC
100
AcDbEntity
  8
0
100
AcDbCircle
 10
-28.30462621825495
 20
-28.55682177358324
 30
-342.6366254886984
 40
49.99999999578999
210
-0.9892889893676125
220
-0.1018585566404013
230
0.1045568264397013
100
AcDbArc
 50
3.519313889109407
 51
85.81824822534088
  0
ARC
  5
1FF7
330
1FAC
100
AcDbEntity
  8
0
100
AcDbCircle
 10
311.8908695761843
 20
-32.21809204920174
 30
307.8072019914179
 40
49.99999992867
210
0.9892907888218761
220
-0.1018395268571976
230
-0.1045583374087975
100
AcDbArc
 50
3.519402262914189
 51
85.81814372227396
  0
SPLINE
  5
1FF8
330
1FAC
100
AcDbEntity
  8
0
100
AcDbSpline
 70
     0
 71
     3
 72
    15
 73
    11
 74
     0
 42
0.0000000001
 43
0.0000000001
 40
0.0
 40
0.0
 40
0.0
 40
0.0
 40
0.125
 40
0.25
 40
0.375
 40
0.5
 40
0.625
 40
0.75
 40
0.875
 40
1.0
 40
1.0
 40
1.0
 40
1.0
 10
338.5281318238016
 20
328.8599076085254
 30
-61.17287317239
 10
342.2664377604015
 20
328.4563562842254
 30
-61.27053675777
 10
349.9293749331018
 20
326.9833044404254
 30
-61.44726834351001
 10
361.4629293197018
 20
322.6157126298252
 30
-61.64599175664
 10
372.5161159763014
 20
316.1299347577253
 30
-61.83340676823998
 10
382.5077853811017
 20
307.7765757814253
 30
-62.03278364265999
 10
391.1278203674015
 20
298.0148729362253
 30
-62.31105875068998
 10
397.8870041812015
 20
287.1657528768253
 30
-62.51985676354999
 10
402.5489165953013
 20
275.7872117653254
 30
-62.63906409642
 10
404.2286567590016
 20
268.1670052781553
 30
-62.62422988379999
 10
404.7330383703014
 20
264.4378532040154
 30
-62.59327080430999
  0
SPLINE
  5
1FF9
330
1FAC
100
AcDbEntity
  8
0
100
AcDbSpline
 70
     0
 71
     3
 72
    15
 73
    11
 74
     0
 42
0.0000000001
 43
0.0000000001
 40
0.0
 40
0.0
 40
0.0
 40
0.0
 40
0.125
 40
0.25
 40
0.375
 40
0.5
 40
0.625
 40
0.75
 40
0.875
 40
1.0
 40
1.0
 40
1.0
 40
1.0
 10
404.7330183385015
 20
77.56214712646539
 30
-62.59327204064
 10
404.2288051336018
 20
73.83416564640538
 30
-62.62420485129999
 10
402.5495273914016
 20
66.21492872142538
 30
-62.63906221914
 10
397.8877168306016
 20
54.83511116792538
 30
-62.51992425246
 10
391.1266796047016
 20
43.98373113122537
 30
-62.31091731354
 10
382.5081678419015
 20
34.22378031062539
 30
-62.03297982809001
 10
372.5146324565017
 20
25.86893148562538
 30
-61.83322260551999
 10
361.4638449114018
 20
19.38498840642537
 30
-61.64611448606
 10
349.9315607422013
 20
15.01725446522536
 30
-61.44721846548002
 10
342.2676246883016
 20
13.54375848172536
 30
-61.27063791649999
 10
338.5281339363014
 20
13.14007073342537
 30
-61.17287198726
  0
SPLINE
  5
1FFA
330
1FAC
100
AcDbEntity
  8
0
100
AcDbSpline
 70
     0
 71
     3
 72
    10
 73
     6
 74
     0
 42
0.0000000001
 43
0.0000000001
 40
0.0
 40
0.0
 40
0.0
 40
0.0
 40
0.3333333333333
 40
0.6666666666667
 40
1.0
 40
1.0
 40
1.0
 40
1.0
 10
410.9544384781015
 20
170.9999988045265
 30
-61.15596076329
 10
410.9544311667012
 20
160.6706792637754
 30
-61.15596287375
 10
410.5028551101012
 20
139.9537400539553
 30
-61.26023691986
 10
408.4149066584012
 20
108.5342285647354
 30
-61.74247488274
 10
406.1104385691014
 20
87.86002425039539
 30
-62.27491263924
 10
404.7330183385015
 20
77.56214712646539
 30
-62.59327204064
  0
SPLINE
  5
1FFB
330
1FAC
100
AcDbEntity
  8
0
100
AcDbSpline
 70
     0
 71
     3
 72
    10
 73
     6
 74
     0
 42
0.0000000001
 43
0.0000000001
 40
0.0
 40
0.0
 40
0.0
 40
0.0
 40
0.3333333333333
 40
0.6666666666667
 40
1.0
 40
1.0
 40
1.0
 40
1.0
 10
404.7330383703014
 20
264.4378532040154
 30
-62.59327080430999
 10
406.1115198735015
 20
254.1320446039053
 30
-62.27466609454999
 10
408.4164925688013
 20
233.4473212891953
 30
-61.74210684861001
 10
410.5028540059015
 20
202.0420253928153
 30
-61.26023788143999
 10
410.9544327591015
 20
181.3275792349554
 30
-61.15596247904
 10
410.9544384781015
 20
170.9999988045265
 30
-61.15596076329
  0
SPLINE
  5
1FFC
330
1FAC
100
AcDbEntity
  8
0
100
AcDbSpline
210
0.0
220
1.0
230
0.0
 70
     8
 71
     3
 72
    12
 73
     8
 74
     0
 42
0.0000000001
 43
0.0000000001
 40
0.0
 40
0.0
 40
0.0
 40
0.0
 40
13.65203489206125
 40
13.65203489206125
 40
211.9239307147779
 40
211.9239307147779
 40
218.8439637155192
 40
218.8439637155192
 40
218.8439637155192
 40
218.8439637155192
 10
146.6073108808776
 20
170.9999988045254
 30
0.0
 10
151.157124447302
 20
170.9999988045254
 30
-0.0887100715101905
 10
155.7083664757088
 20
170.9999988045254
 30
-0.076506962143208
 10
226.3445153320903
 20
170.9999988045254
 30
-0.9304313833283039
 10
292.4885161759703
 20
170.9999988045254
 30
-5.362372523551617
 10
360.3725709301161
 20
170.9999988045254
 30
-13.72580912126434
 10
362.6612458594199
 20
170.9999988045254
 30
-14.01347250502973
 10
364.949916209197
 20
170.9999988045254
 30
-14.30113530952517
  0
ARC
  5
1FFD
330
1FAC
100
AcDbEntity
  8
0
100
AcDbCircle
 10
138.0761902718917
 20
-1805.180970027906
 30
-170.9999988045254
 40
1805.190491135768
210
0.0
220
-1.0
230
0.0
100
AcDbArc
 50
82.71148113610143
 51
89.79063801506837
  0
ARC
  5
1FFE
330
1FAC
100
AcDbEntity
  8
0
100
AcDbCircle
 10
-138.4999997957016
 20
-1800.0
 30
170.9999988045254
 40
1800.0
210
0.0
220
1.0
230
0.0
100
AcDbArc
 50
90.0
 51
97.30609445914412
  0
SPLINE
  5
1FFF
330
1FAC
100
AcDbEntity
  8
0
100
AcDbSpline
 70
     0
 71
     3
 72
    10
 73
     6
 74
     0
 42
0.0000000001
 43
0.0000000001
 40
0.0
 40
0.0
 40
0.0
 40
0.0
 40
0.3333333333333
 40
0.6666666666667
 40
1.0
 40
1.0
 40
1.0
 40
1.0
 10
361.4730511433017
 20
260.2066172422754
 30
-16.0927161578
 10
362.7938175918016
 20
250.3213611489754
 30
-15.76347681249997
 10
364.9827689873018
 20
230.6523957682454
 30
-15.21800213879999
 10
366.9771107593015
 20
200.5881663987453
 30
-14.72121034299999
 10
367.4061939749017
 20
180.9132662034824
 30
-14.6143423531
 10
367.4062051211017
 20
170.9999988045254
 30
-14.6143418414
  0
SPLINE
  5
2000
330
1FAC
100
AcDbEntity
  8
0
100
AcDbSpline
 70
     0
 71
     3
 72
    10
 73
     6
 74
     0
 42
0.0000000001
 43
0.0000000001
 40
0.0
 40
0.0
 40
0.0
 40
0.0
 40
0.3333333333333
 40
0.6666666666667
 40
1.0
 40
1.0
 40
1.0
 40
1.0
 10
367.4062051211017
 20
170.9999988045254
 30
-14.6143418414
 10
367.4061910104015
 20
161.0876537365764
 30
-14.6143424816
 10
366.9774004745014
 20
141.4138945825854
 30
-14.72113896169999
 10
364.9814150165016
 20
111.3311151966454
 30
-15.21833877879999
 10
362.7928416569015
 20
91.67133822153539
 30
-15.76372067930001
 10
361.4730510490017
 20
81.79338040450536
 30
-16.09271691199998
  0
SPLINE
  5
2001
330
1FAC
100
AcDbEntity
  8
0
100
AcDbSpline
 70
     0
 71
     3
 72
    15
 73
    11
 74
     0
 42
0.0000000001
 43
0.0000000001
 40
0.0
 40
0.0
 40
0.0
 40
0.0
 40
0.125
 40
0.25
 40
0.375
 40
0.5
 40
0.625
 40
0.75
 40
0.875
 40
1.0
 40
1.0
 40
1.0
 40
1.0
 10
361.4730510490017
 20
81.79338040450536
 30
-16.09271691199998
 10
361.3424006486015
 20
80.82298240169535
 30
-16.12491910559997
 10
360.9009756315018
 20
78.72414628908538
 30
-16.17620187209999
 10
359.4106230077013
 20
75.04203765658536
 30
-16.18487749979999
 10
357.0630845959017
 20
71.2131528874254
 30
-16.1051255877
 10
353.5113192422012
 20
67.18217977922538
 30
-15.90292841760001
 10
349.3628817073012
 20
63.74771255132538
 30
-15.61157935419998
 10
345.4523571908016
 20
61.51113417272537
 30
-15.29027375550001
 10
341.7204244377017
 20
60.13244198392538
 30
-14.9469954043
 10
339.6245987187016
 20
59.75819319392538
 30
-14.73388856380001
 10
338.6575048436016
 20
59.65760028352537
 30
-14.63173454810001
  0
SPLINE
  5
2002
330
1FAC
100
AcDbEntity
  8
0
100
AcDbSpline
 70
     0
 71
     3
 72
    15
 73
    11
 74
     0
 42
0.0000000001
 43
0.0000000001
 40
0.0
 40
0.0
 40
0.0
 40
0.0
 40
0.125
 40
0.25
 40
0.375
 40
0.5
 40
0.625
 40
0.75
 40
0.875
 40
1.0
 40
1.0
 40
1.0
 40
1.0
 10
338.6575047541014
 20
282.3423972758254
 30
-14.6317353462
 10
339.6242188804017
 20
282.2418548267254
 30
-14.73384992259999
 10
341.7195093991018
 20
281.8679193034254
 30
-14.9469125057
 10
345.4527792019017
 20
280.4885407184253
 30
-15.29030388359998
 10
349.3622323205018
 20
278.2529770601253
 30
-15.61154166729999
 10
353.5138092686016
 20
274.8153992219254
 30
-15.9030878081
 10
357.0623338065014
 20
270.7875279004454
 30
-16.10507436489999
 10
359.4109430336016
 20
266.9575789229253
 30
-16.18489561879999
 10
360.9005748391014
 20
263.2767804440554
 30
-16.17620127000001
 10
361.3423432580016
 20
261.1774050166653
 30
-16.124930627
 10
361.4730511433017
 20
260.2066172422754
 30
-16.0927161578
  0
ENDBLK
  5
2003
330
1FAC
100
AcDbEntity
  8
0
100
AcDbBlockEnd
  0
BLOCK
  5
2424
330
2420
100
AcDbEntity
  8
0
100
AcDbBlockBegin
  2
*U85
 70
     1
 10
0.0
 20
0.0
 30
0.0
  3
*U85
  1

  0
TEXT
  5
2421
330
2420
100
AcDbEntity
  8
0
100
AcDbText
 10
1.9327459004445
 20
-2.486795878345354
 30
0.0
 40
0.5
  1
NOTE: CHECK ALL DXF FILES BEFORE USING.
100
AcDbText
  0
TEXT
  5
2422
330
2420
100
AcDbEntity
  8
0
100
AcDbText
 10
1.9327459004445
 20
-3.320129211678687
 30
0.0
 40
0.5
  1
DOMAIN INDUSTRIES DOES NOT WARRANT AND
100
AcDbText
  0
TEXT
  5
2423
330
2420
100
AcDbEntity
  8
0
100
AcDbText
 10
1.9327459004445
 20
-4.153462545012019
 30
0.0
 40
0.5
  1
IS NOT LIABLE FOR ACCURACY OF DRAWING.
100
AcDbText
  0
ENDBLK
  5
2425
330
2420
100
AcDbEntity
  8
0
100
AcDbBlockEnd
  0
BLOCK
  5
243F
330
243B
100
AcDbEntity
  8
0
100
AcDbBlockBegin
  2
*U86
 70
     1
 10
0.0
 20
0.0
 30
0.0
  3
*U86
  1

  0
TEXT
  5
243C
330
243B
100
AcDbEntity
  8
0
100
AcDbText
 10
1.9327459004445
 20
-2.486795878345354
 30
0.0
 40
0.5
  1
NOTE: CHECK ALL DXF FILES BEFORE USING.
100
AcDbText
  0
TEXT
  5
243D
330
243B
100
AcDbEntity
  8
0
100
AcDbText
 10
1.9327459004445
 20
-3.320129211678687
 30
0.0
 40
0.5
  1
DOMAIN INDUSTRIES DOES NOT WARRANT AND
100
AcDbText
  0
TEXT
  5
243E
330
243B
100
AcDbEntity
  8
0
100
AcDbText
 10
1.9327459004445
 20
-4.153462545012019
 30
0.0
 40
0.5
  1
IS NOT LIABLE FOR ACCURACY OF DRAWING.
100
AcDbText
  0
ENDBLK
  5
2440
330
243B
100
AcDbEntity
  8
0
100
AcDbBlockEnd
  0
ENDSEC
  0
SECTION
  2
ENTITIES
  0
INSERT
  5
242C
330
18
100
AcDbEntity
  8
1
 62
     7
100
AcDbBlockReference
  2
*U85
 10
5011.246768951299
 20
-71.41370398648006
 30
0.0
  0
TEXT
  5
242D
330
18
100
AcDbEntity
  8
0
 62
     5
100
AcDbText
 10
5013.108890829837
 20
-77.0348749253685
 30
0.0
 40
0.5
  1
(C)2009 DOMAIN INDUSTRIES, INC.
100
AcDbText
  0
LINE
  5
2502
330
18
100
AcDbEntity
  8
0
 62
     0
100
AcDbLine
 10
5016.306803149365
 20
-70.51380280244389
 30
0.0
 11
5032.920744185872
 21
-70.51380280244389
 31
0.0
  0
ARC
  5
2503
330
18
100
AcDbEntity
  8
0
 62
     0
100
AcDbCircle
 10
5019.253297804721
 20
-57.98588130136791
 30
0.0
 40
6.153531
100
AcDbArc
 50
50.10021344426785
 51
77.65300208532663
  0
MTEXT
  5
2504
330
18
100
AcDbEntity
  8
0
 62
     0
100
AcDbMText
 10
5011.180033912588
 20
-60.34552397721104
 30
0.0
 40
1.107281249999999
 41
5.964362504565517
 71
     1
 72
     5
  1
MILAN(BE-212R)
 73
     1
 44
1.0
  0
LINE
  5
2505
330
18
100
AcDbEntity
  8
0
  6
DASHED2
 48
0.1
100
AcDbLine
 10
5016.306803149365
 20
-70.2657718024429
 30
0.0
 11
5032.920744185872
 21
-70.2657718024429
 31
0.0
  0
ARC
  5
2506
330
18
100
AcDbEntity
  8
0
  6
DASHED2
 48
0.1
100
AcDbCircle
 10
5019.253297804721
 20
-57.98588130136791
 30
0.0
 40
5.905499999999999
100
AcDbArc
 50
50.10021344426785
 51
77.65300208532663
  0
LWPOLYLINE
  5
2507
330
18
100
AcDbEntity
  8
0
100
AcDbPolyline
 90
        2
 70
     0
 43
0.031999936
 10
5015.81643343466
 20
-69.77540208773913
 10
5016.099275581449
 20
-70.05824423452846
  0
MTEXT
  5
2508
330
18
100
AcDbEntity
  8
0
100
AcDbMText
 10
5016.108577786267
 20
-69.76414074913096
 30
0.0
 40
0.212598
 41
0.0
 71
     9
 72
     1
  1
{\fArial|b0|i0|c0|p34;\H0.9259x;Use this line for FLUSH MOUNT CUT}
 73
     1
 44
1.0
  0
LWPOLYLINE
  5
2509
330
18
100
AcDbEntity
  8
0
100
AcDbPolyline
 90
        2
 70
     0
 10
5016.097422122583
 20
-70.05639077566134
 40
0.118443795111936
 41
0.019740632518656
 10
5016.306803149366
 20
-70.26577180244472
 40
0.019740632518656
 41
0.019740632518656
  0
ARC
  5
250A
330
18
100
AcDbEntity
  8
0
 62
     0
100
AcDbCircle
 10
5016.306803149365
 20
-71.44666840673285
 30
0.0
 40
19.933031
100
AcDbArc
 50
77.65300208532663
 51
102.3469979146733
  0
ARC
  5
250B
330
18
100
AcDbEntity
  8
0
 62
     0
100
AcDbCircle
 10
5013.36030849401
 20
-57.98588130136791
 30
0.0
 40
6.153531
100
AcDbArc
 50
102.3469979146733
 51
178.5016258619478
  0
ARC
  5
250C
330
18
100
AcDbEntity
  8
0
 62
     0
100
AcDbCircle
 10
5204.298553149365
 20
-62.98035330244324
 30
0.0
 40
197.157086
100
AcDbArc
 50
178.5016258619478
 51
181.0870315166897
  0
ARC
  5
250D
330
18
100
AcDbEntity
  8
0
 62
     0
100
AcDbCircle
 10
5010.967597853176
 20
-66.64872228370855
 30
0.0
 40
3.791331
100
AcDbArc
 50
181.0870315166897
 51
268.4172672804164
  0
ARC
  5
250E
330
18
100
AcDbEntity
  8
0
 62
     0
100
AcDbCircle
 10
5016.306803149365
 20
126.5842281975556
 30
0.0
 40
197.098031
100
AcDbArc
 50
268.4172672804164
 51
270.0
  0
ARC
  5
250F
330
18
100
AcDbEntity
  8
0
  6
DASHED2
 48
0.1
100
AcDbCircle
 10
5010.967597853176
 20
-66.64872228370855
 30
0.0
 40
3.5433
100
AcDbArc
 50
181.0870315166897
 51
268.4172672804164
  0
ARC
  5
2510
330
18
100
AcDbEntity
  8
0
  6
DASHED2
 48
0.1
100
AcDbCircle
 10
5013.36030849401
 20
-57.98588130136791
 30
0.0
 40
5.905499999999999
100
AcDbArc
 50
102.3469979146733
 51
178.5016258619478
  0
ARC
  5
2511
330
18
100
AcDbEntity
  8
0
  6
DASHED2
 48
0.1
100
AcDbCircle
 10
5204.298553149365
 20
-62.98035330244324
 30
0.0
 40
196.909055
100
AcDbArc
 50
178.5016258619478
 51
181.0870315166897
  0
ARC
  5
2512
330
18
100
AcDbEntity
  8
0
  6
DASHED2
 48
0.1
100
AcDbCircle
 10
5016.306803149365
 20
-71.44666840673285
 30
0.0
 40
19.685
100
AcDbArc
 50
77.65300208532663
 51
102.3469979146733
  0
ARC
  5
2513
330
18
100
AcDbEntity
  8
0
  6
DASHED2
 48
0.1
100
AcDbCircle
 10
5016.306803149365
 20
126.5842281975556
 30
0.0
 40
196.85
100
AcDbArc
 50
268.4172672804164
 51
270.0
  0
HATCH
  5
2514
330
18
100
AcDbEntity
  8
0
  6
ByBlock
 62
     1
100
AcDbHatch
 10
0.0
 20
0.0
 30
0.0
210
0.0
220
0.0
230
1.0
  2
ANSI31
 70
     0
 71
     0
 91
        1
 92
        5
 93
        9
 72
     4
 94
        3
 73
     0
 74
     0
 95
       10
 96
        6
 40
168.1890314628041
 40
168.1890314628041
 40
168.1890314628041
 40
168.1890314628041
 40
240.3970488653276
 40
404.4385438063731
 40
531.2097876496541
 40
531.2097876496541
 40
531.2097876496541
 40
531.2097876496541
 10
5028.942995009222
 20
-59.28512044707618
 10
5028.98078169469
 20
-59.32357587281417
 10
5029.073641211893
 20
-59.46442780358388
 10
5028.995216428348
 20
-59.78889142377098
 10
5029.095329421714
 20
-59.9898988731647
 10
5029.154563897546
 20
-60.07188375593155
 72
     1
 10
5029.154563897546
 20
-60.07188375593155
 11
5030.831581297046
 21
-60.07188375593155
 72
     1
 10
5030.831581297046
 20
-60.07188375593155
 11
5030.831581297046
 21
-59.74686632464631
 72
     1
 10
5030.831581297046
 20
-59.74686632464631
 11
5031.091423297047
 21
-59.74686632464631
 72
     1
 10
5031.091423297046
 20
-59.74686632464631
 11
5031.091423297046
 21
-60.07188375593155
 72
     1
 10
5031.091423297046
 20
-60.07188375593155
 11
5032.480293600852
 21
-60.07188375593155
 72
     1
 10
5032.480293600852
 20
-60.07188375593155
 11
5032.480293600852
 21
-59.40323044707561
 72
     2
 10
5032.362183600851
 20
-59.40323044707561
 40
0.11811
 50
0.0
 51
90.0
 73
     1
 72
     1
 10
5032.362183600851
 20
-59.28512044707436
 11
5028.942995009221
 21
-59.28512044707436
 97
        0
 75
     0
 76
     1
 52
0.0
 41
0.023622
 77
     0
 78
     1
 53
45.0
 43
5015.717040657371
 44
-60.88434269825753
 45
-0.0530329025229739
 46
0.0530329025229739
 79
     0
 47
2.847268091439218
 98
        1
 10
5029.812955295364
 20
-59.6044807869011
  0
LINE
  5
2515
330
18
100
AcDbEntity
  8
0
  6
ByBlock
100
AcDbLine
 10
5031.091423297046
 20
-60.07188375593155
 30
0.0
 11
5031.091423297046
 21
-59.7468663246445
 31
0.0
  0
LINE
  5
2516
330
18
100
AcDbEntity
  8
0
  6
ByBlock
100
AcDbLine
 10
5030.831581297046
 20
-59.7468663246445
 30
0.0
 11
5031.091423297046
 21
-59.7468663246445
 31
0.0
  0
HATCH
  5
2517
330
18
100
AcDbEntity
  8
DESHED
  6
ByBlock
100
AcDbHatch
 10
0.0
 20
0.0
 30
0.0
210
0.0
220
0.0
230
1.0
  2
ANSI31
 70
     0
 71
     0
 91
        2
 92
        7
 72
     0
 73
     1
 93
       12
 10
5030.908299895805
 20
-59.82239393006143
 10
5030.890636297046
 20
-59.80980940446257
 10
5030.907558959644
 20
-59.79648463287317
 10
5030.890636297046
 20
-59.78315983836633
 10
5030.907884896584
 20
-59.77048832464693
 10
5030.855203297046
 20
-59.77048832464693
 10
5030.855203297046
 20
-59.87509845649306
 10
5030.905613456695
 20
-59.87509845649306
 10
5030.910522747443
 20
-59.87199176355075
 10
5030.890636297046
 20
-59.85940723795188
 10
5030.909781811282
 20
-59.84978378798309
 10
5030.890636297046
 20
-59.83349791784617
 97
        0
 92
        7
 72
     0
 73
     1
 93
       13
 10
5031.067801297046
 20
-59.77048832464693
 10
5031.015119697508
 20
-59.77048832464693
 10
5031.032368297046
 20
-59.78315983836633
 10
5031.015445634449
 20
-59.79648463287317
 10
5031.031132008336
 20
-59.80943944759651
 10
5031.032368297046
 20
-59.80980940446257
 10
5031.014704698288
 20
-59.82239393006143
 10
5031.032368297046
 20
-59.83349791784617
 10
5031.01322278281
 20
-59.84978378798309
 10
5031.032368297046
 20
-59.85940723795188
 10
5031.012481846649
 20
-59.87199176355075
 10
5031.017391137398
 20
-59.87509845649306
 10
5031.067801297046
 20
-59.87509845649306
 97
        0
 75
     0
 76
     1
 52
270.0
 41
0.0023622
 77
     0
 78
     1
 53
315.0
 43
5015.717040657371
 44
-60.88434269825753
 45
0.0053032902522974
 46
0.0053032902522974
 79
     0
 47
0.4906110457808098
 98
        2
 10
5030.879061427028
 20
-59.83074987397135
 10
5031.051900968284
 20
-59.84349800171454
  0
HATCH
  5
2518
330
18
100
AcDbEntity
  8
DESHED
  6
ByBlock
100
AcDbHatch
 10
0.0
 20
0.0
 30
0.0
210
0.0
220
0.0
230
1.0
  2
ANSI31
 70
     0
 71
     0
 91
        2
 92
        7
 72
     0
 73
     1
 93
        9
 10
5031.091423297046
 20
-59.74686632464631
 10
5031.009837244403
 20
-59.74686632464631
 10
5031.009837244403
 20
-59.77048832464693
 10
5031.067801297046
 20
-59.77048832464693
 10
5031.067801297046
 20
-60.09550575593216
 10
5031.068735846046
 20
-60.09550575593216
 10
5031.115045297046
 20
-60.09550575593216
 10
5031.115045297046
 20
-60.07188375593155
 10
5031.091423297046
 20
-60.07188375593155
 97
        0
 92
        7
 72
     0
 73
     1
 93
        8
 10
5030.912680374475
 20
-59.74686632464631
 10
5030.831581297046
 20
-59.74686632464631
 10
5030.831581297046
 20
-60.07188375593155
 10
5030.807959297046
 20
-60.07188375593155
 10
5030.807959297046
 20
-60.09550575593216
 10
5030.855203297046
 20
-60.09550575593216
 10
5030.855203297046
 20
-59.77048832464693
 10
5030.912680374475
 20
-59.77048832464693
 97
        0
 75
     0
 76
     1
 52
0.0
 41
0.0047244
 77
     0
 78
     1
 53
45.0
 43
5015.717040657371
 44
-60.88434269825753
 45
-0.0106065805045948
 46
0.0106065805045948
 79
     0
 47
0.9928036230062964
 98
        2
 10
5031.057916399737
 20
-59.75869271890856
 10
5030.848999854366
 20
-59.7633831188095
  0
LINE
  5
2519
330
18
100
AcDbEntity
  8
DESHED
  6
ByBlock
 62
     1
100
AcDbLine
 10
5030.890636297045
 20
-60.0591174802566
 30
0.0
 11
5030.913155554512
 21
-60.0824676833317
 31
0.0
  0
LINE
  5
251A
330
18
100
AcDbEntity
  8
DESHED
  6
ByBlock
 62
     1
100
AcDbLine
 10
5030.913155554512
 20
-60.0824676833317
 30
0.0
 11
5030.890636297045
 21
-60.10266998675884
 31
0.0
  0
LINE
  5
251B
330
18
100
AcDbEntity
  8
DESHED
  6
ByBlock
 62
     1
100
AcDbLine
 10
5030.890636297045
 20
-60.10266998675884
 30
0.0
 11
5030.913155554512
 21
-60.12434460641539
 31
0.0
  0
LINE
  5
251C
330
18
100
AcDbEntity
  8
DESHED
  6
ByBlock
 62
     1
100
AcDbLine
 10
5030.913155554512
 20
-60.12434460641539
 30
0.0
 11
5030.890636297045
 21
-60.14983488663979
 31
0.0
  0
LINE
  5
251D
330
18
100
AcDbEntity
  8
DESHED
  6
ByBlock
 62
     1
100
AcDbLine
 10
5030.890636297045
 20
-60.14983488663979
 30
0.0
 11
5030.913155554512
 21
-60.17350444536619
 31
0.0
  0
LINE
  5
251E
330
18
100
AcDbEntity
  8
DESHED
  6
ByBlock
 62
     1
100
AcDbLine
 10
5030.913155554512
 20
-60.17350444536619
 30
0.0
 11
5030.890636297045
 21
-60.19444292184466
 31
0.0
  0
LINE
  5
251F
330
18
100
AcDbEntity
  8
DESHED
  6
ByBlock
 62
     1
100
AcDbLine
 10
5030.890636297045
 20
-60.19444292184466
 30
0.0
 11
5030.913155554512
 21
-60.21538136844988
 31
0.0
  0
LINE
  5
2520
330
18
100
AcDbEntity
  8
DESHED
  6
ByBlock
 62
     1
100
AcDbLine
 10
5030.913155554512
 20
-60.21538136844988
 30
0.0
 11
5030.890636297045
 21
-60.23176801130917
 31
0.0
  0
LINE
  5
2521
330
18
100
AcDbEntity
  8
DESHED
  6
ByBlock
 62
     1
100
AcDbLine
 10
5031.00984903958
 20
-60.21538136844988
 30
0.0
 11
5031.032368297045
 21
-60.23176801130917
 31
0.0
  0
LINE
  5
2522
330
18
100
AcDbEntity
  8
DESHED
  6
ByBlock
 62
     1
100
AcDbLine
 10
5031.032368297045
 20
-60.19444292184466
 30
0.0
 11
5031.00984903958
 21
-60.21538136844988
 31
0.0
  0
LINE
  5
2523
330
18
100
AcDbEntity
  8
DESHED
  6
ByBlock
 62
     1
100
AcDbLine
 10
5031.00984903958
 20
-60.17350444536619
 30
0.0
 11
5031.032368297045
 21
-60.19444292184466
 31
0.0
  0
LINE
  5
2524
330
18
100
AcDbEntity
  8
DESHED
  6
ByBlock
 62
     1
100
AcDbLine
 10
5031.032368297045
 20
-60.14983488663979
 30
0.0
 11
5031.00984903958
 21
-60.17350444536619
 31
0.0
  0
LINE
  5
2525
330
18
100
AcDbEntity
  8
DESHED
  6
ByBlock
 62
     1
100
AcDbLine
 10
5031.00984903958
 20
-60.12434460641539
 30
0.0
 11
5031.032368297045
 21
-60.14983488663979
 31
0.0
  0
LINE
  5
2526
330
18
100
AcDbEntity
  8
DESHED
  6
ByBlock
 62
     1
100
AcDbLine
 10
5031.032368297045
 20
-60.10266998675884
 30
0.0
 11
5031.00984903958
 21
-60.12434460641539
 31
0.0
  0
LINE
  5
2527
330
18
100
AcDbEntity
  8
DESHED
  6
ByBlock
 62
     1
100
AcDbLine
 10
5030.907558959643
 20
-59.79648463287135
 30
0.0
 11
5030.890636297045
 21
-59.80980940446257
 31
0.0
  0
LINE
  5
2528
330
18
100
AcDbEntity
  8
DESHED
  6
ByBlock
 62
     1
100
AcDbLine
 10
5031.015445634449
 20
-59.79648463287135
 30
0.0
 11
5031.031132008335
 21
-59.8094394475947
 31
0.0
  0
LINE
  5
2529
330
18
100
AcDbEntity
  8
DESHED
  6
ByBlock
 62
     1
100
AcDbLine
 10
5030.912680374475
 20
-59.77043610797132
 30
0.0
 11
5030.912680374475
 21
-59.7468663246445
 31
0.0
  0
LINE
  5
252A
330
18
100
AcDbEntity
  8
DESHED
  6
ByBlock
 62
     1
100
AcDbLine
 10
5031.009837244402
 20
-59.77007835642957
 30
0.0
 11
5031.009837244402
 21
-59.7468663246445
 31
0.0
  0
LINE
  5
252B
330
18
100
AcDbEntity
  8
DESHED
  6
ByBlock
 62
     1
100
AcDbLine
 10
5030.855203297045
 20
-60.09550575593035
 30
0.0
 11
5031.068735846045
 21
-60.09550575593035
 31
0.0
  0
LINE
  5
252C
330
18
100
AcDbEntity
  8
DESHED
  6
ByBlock
 62
     1
100
AcDbLine
 10
5031.015119697508
 20
-59.77048832464511
 30
0.0
 11
5031.032368297045
 21
-59.78315983836451
 31
0.0
  0
LINE
  5
252D
330
18
100
AcDbEntity
  8
DESHED
  6
ByBlock
 62
     1
100
AcDbLine
 10
5030.907884896584
 20
-59.77048832464511
 30
0.0
 11
5030.890636297045
 21
-59.78315983836451
 31
0.0
  0
LINE
  5
252E
330
18
100
AcDbEntity
  8
DESHED
  6
ByBlock
 62
     1
100
AcDbLine
 10
5030.807959297046
 20
-60.07188375593155
 30
0.0
 11
5030.831581297046
 21
-60.07188375593155
 31
0.0
  0
LINE
  5
252F
330
18
100
AcDbEntity
  8
DESHED
  6
ByBlock
 62
     1
100
AcDbLine
 10
5031.091423297046
 20
-60.07188375593155
 30
0.0
 11
5031.115045297046
 21
-60.07188375593155
 31
0.0
  0
LINE
  5
2530
330
18
100
AcDbEntity
  8
DESHED
 62
     1
100
AcDbLine
 10
5031.091423297046
 20
-60.07070189788006
 30
0.0
 11
5031.115045297046
 21
-60.07188375593155
 31
0.0
  0
LINE
  5
2531
330
18
100
AcDbEntity
  8
DESHED
  6
ByBlock
 62
     1
100
AcDbLine
 10
5030.919766974475
 20
-59.7468663246445
 30
0.0
 11
5031.091423297046
 21
-59.7468663246445
 31
0.0
  0
LINE
  5
2532
330
18
100
AcDbEntity
  8
DESHED
  6
ByBlock
 62
     1
100
AcDbLine
 10
5031.017391137397
 20
-59.87509845649306
 30
0.0
 11
5031.067801297045
 21
-59.87509845649306
 31
0.0
  0
LINE
  5
2533
330
18
100
AcDbEntity
  8
DESHED
  6
ByBlock
 62
     1
100
AcDbLine
 10
5031.009837244402
 20
-59.77048832464511
 30
0.0
 11
5031.067801297045
 21
-59.77048832464511
 31
0.0
  0
LINE
  5
2534
330
18
100
AcDbEntity
  8
DESHED
  6
ByBlock
 62
     1
100
AcDbLine
 10
5030.831581297046
 20
-59.7468663246445
 30
0.0
 11
5030.919766974475
 21
-59.7468663246445
 31
0.0
  0
LINE
  5
2535
330
18
100
AcDbEntity
  8
DESHED
  6
ByBlock
 62
     1
370
     0
100
AcDbLine
 10
5031.067801297045
 20
-59.77048832464511
 30
0.0
 11
5031.067801297045
 21
-60.09550575593035
 31
0.0
  0
LINE
  5
2536
330
18
100
AcDbEntity
  8
DESHED
  6
ByBlock
 62
     1
370
     0
100
AcDbLine
 10
5030.855203297045
 20
-60.09550575593035
 30
0.0
 11
5030.855203297045
 21
-59.77048832464511
 31
0.0
  0
LINE
  5
2537
330
18
100
AcDbEntity
  8
DIM
100
AcDbLine
 10
5031.055990297045
 20
-60.26961848146034
 30
0.0
 11
5031.055990297045
 21
-60.35233427870749
 31
0.0
  0
LINE
  5
2538
330
18
100
AcDbEntity
  8
DIM
100
AcDbLine
 10
5030.867014297045
 20
-60.26382845308667
 30
0.0
 11
5030.867014297045
 21
-60.34654425033382
 31
0.0
  0
LINE
  5
2539
330
18
100
AcDbEntity
  8
DESHED
  6
ByBlock
 62
     1
100
AcDbLine
 10
5031.068735846045
 20
-60.09550575593035
 30
0.0
 11
5031.115045297046
 21
-60.09550575593035
 31
0.0
  0
LINE
  5
253A
330
18
100
AcDbEntity
  8
DESHED
  6
ByBlock
 62
     1
100
AcDbLine
 10
5030.807959297046
 20
-60.09550575593035
 30
0.0
 11
5030.854268748045
 21
-60.09550575593035
 31
0.0
  0
LINE
  5
253B
330
18
100
AcDbEntity
  8
DESHED
  6
ByBlock
 62
     1
370
     0
100
AcDbLine
 10
5030.807959297046
 20
-60.09550575593035
 30
0.0
 11
5030.807959297046
 21
-60.07188375593155
 31
0.0
  0
LINE
  5
253C
330
18
100
AcDbEntity
  8
DESHED
  6
ByBlock
 62
     1
370
     0
100
AcDbLine
 10
5031.115045297046
 20
-60.07188375593155
 30
0.0
 11
5031.115045297046
 21
-60.09550575593035
 31
0.0
  0
LINE
  5
253D
330
18
100
AcDbEntity
  8
DIM
100
AcDbLine
 10
5030.890636297045
 20
-60.23176801130917
 30
0.0
 11
5030.890636297045
 21
-60.38102255353347
 31
0.0
  0
LINE
  5
253E
330
18
100
AcDbEntity
  8
DIM
100
AcDbLine
 10
5031.032368297045
 20
-60.23176801130917
 30
0.0
 11
5031.032368297045
 21
-60.38102255353347
 31
0.0
  0
LINE
  5
253F
330
18
100
AcDbEntity
  8
DESHED
  6
ByBlock
 62
     1
100
AcDbLine
 10
5030.855203297045
 20
-59.87509845649306
 30
0.0
 11
5030.905613456694
 21
-59.87509845649306
 31
0.0
  0
LINE
  5
2540
330
18
100
AcDbEntity
  8
DESHED
  6
ByBlock
 62
     1
100
AcDbLine
 10
5030.855203297045
 20
-59.77048832464511
 30
0.0
 11
5030.912680374475
 21
-59.77048832464511
 31
0.0
  0
LINE
  5
2541
330
18
100
AcDbEntity
  8
DIM
100
AcDbLine
 10
5032.063148451114
 20
-60.12251232263493
 30
0.0
 11
5032.063874997605
 21
-60.16975073567206
 31
0.0
  0
LINE
  5
2542
330
18
100
AcDbEntity
  8
DIM
100
AcDbLine
 10
5032.09193862575
 20
-60.07188375593155
 30
0.0
 11
5032.114344850382
 21
-60.12172490066491
 31
0.0
  0
LINE
  5
2543
330
18
100
AcDbEntity
  8
DIM
100
AcDbLine
 10
5032.517196825155
 20
-60.07188375593155
 30
0.0
 11
5032.527367726427
 21
-60.11537243660036
 31
0.0
  0
LINE
  5
2544
330
18
100
AcDbEntity
  8
DIM
100
AcDbLine
 10
5032.690509393164
 20
-60.1601128373613
 30
0.0
 11
5032.063874997605
 21
-60.16975073567206
 31
0.0
  0
LEADER
  5
2545
330
18
100
AcDbEntity
  8
DIM
100
AcDbLeader
  3
B
 73
     0
 40
0.11811
 41
0.3937
 76
     2
 10
5032.828300118957
 20
-60.21731519367399
 30
0.0
 10
5031.404327021079
 20
-59.8496925119082
 30
0.0
340
2546
213
0.0
223
-0.059055
233
0.0
1001
ACAD
1000
DSTYLE
1002
{
1070
   147
1040
0.3
1070
    77
1070
     0
1002
}
  0
MTEXT
  5
2546
102
{ACAD_REACTORS
330
2545
102
}
330
18
100
AcDbEntity
  8
DIM
100
AcDbMText
 10
5033.69032702108
 20
-59.7906375119082
 30
0.0
 40
0.11811
 41
0.023622
 71
     1
 72
     1
  1
SINK
 73
     1
 44
1.0
  0
MTEXT
  5
2547
330
18
100
AcDbEntity
  8
DIM
100
AcDbMText
 10
5029.85008883121
 20
-61.03401718729124
 30
0.0
 40
0.11811
 41
0.023622
 71
     9
 72
     1
  1
SCREWS
 73
     1
 44
1.0
  0
MTEXT
  5
2548
330
18
100
AcDbEntity
  8
DIM
100
AcDbMText
 10
5029.37001658529
 20
-60.74579268881366
 30
0.0
 40
0.11811
 41
0.023622
 71
     9
 72
     1
  1
FASTENER
 73
     1
 44
1.0
  0
LINE
  5
2549
330
18
100
AcDbEntity
  8
DIM
 62
     1
370
     0
100
AcDbLine
 10
5031.292210297046
 20
-60.27685601692697
 30
0.0
 11
5031.292210297046
 21
-60.35957181417412
 31
0.0
  0
LINE
  5
254A
330
18
100
AcDbEntity
  8
DIM
100
AcDbLine
 10
5030.630794297046
 20
-60.25659091761823
 30
0.0
 11
5030.630794297046
 21
-60.33930671486537
 31
0.0
  0
LINE
  5
254B
330
18
100
AcDbEntity
  8
DIM
 62
     1
370
     0
100
AcDbLine
 10
5032.33195470363
 20
-60.3914285029377
 30
0.0
 11
5032.418821698152
 21
-60.19954748417963
 31
0.0
  0
LINE
  5
254C
330
18
100
AcDbEntity
  8
DIM
 62
     1
370
     0
100
AcDbLine
 10
5031.055990297045
 20
-60.35233427870749
 30
0.0
 11
5032.33195470363
 21
-60.3914285029377
 31
0.0
  0
LINE
  5
254D
330
18
100
AcDbEntity
  8
DIM
 62
     1
370
     0
100
AcDbLine
 10
5032.279375829229
 20
-60.30710174358588
 30
0.0
 11
5031.055990297045
 21
-60.26961848146034
 31
0.0
  0
LINE
  5
254E
330
18
100
AcDbEntity
  8
DIM
 62
     1
370
     0
100
AcDbLine
 10
5032.343503417512
 20
-60.16544993396833
 30
0.0
 11
5032.279375829229
 21
-60.30710174358588
 31
0.0
  0
LINE
  5
254F
330
18
100
AcDbEntity
  8
DIM
 62
     1
370
     0
100
AcDbLine
 10
5032.418821698152
 20
-60.19954748417963
 30
0.0
 11
5032.343503417512
 21
-60.16544993396833
 31
0.0
  0
ARC
  5
2550
330
18
100
AcDbEntity
  8
DIM
 62
     1
370
     0
100
AcDbCircle
 10
5032.691962486146
 20
-60.25458966343371
 30
0.0
 40
0.1417319999999996
100
AcDbArc
 50
1.839441251917187
 51
90.88116350371967
  0
LINE
  5
2551
330
18
100
AcDbEntity
  8
DIM
 62
     1
370
     0
100
AcDbLine
 10
5032.870498288422
 20
-61.41400982441787
 30
0.0
 11
5032.833621451792
 21
-60.25004023749985
 31
0.0
  0
LINE
  5
2552
330
18
100
AcDbEntity
  8
DIM
 62
     1
370
     0
100
AcDbLine
 10
5032.824285842759
 20
-61.43118132376817
 30
0.0
 11
5032.870498288422
 21
-61.41400982441787
 31
0.0
  0
LINE
  5
2553
330
18
100
AcDbEntity
  8
DIM
 62
     1
370
     0
100
AcDbLine
 10
5032.786401796577
 20
-60.25155671281114
 30
0.0
 11
5032.824285842759
 21
-61.43118132376817
 31
0.0
  0
ARC
  5
2554
330
18
100
AcDbEntity
  8
DIM
 62
     1
370
     0
100
AcDbCircle
 10
5032.691962486146
 20
-60.25458966343371
 30
0.0
 40
0.0944879999999989
100
AcDbArc
 50
1.839441251917187
 51
90.88116350371967
  0
LINE
  5
2555
330
18
100
AcDbEntity
  8
DIM
 62
     1
370
     0
100
AcDbLine
 10
5032.063874997605
 20
-60.16975073567206
 30
0.0
 11
5032.690509393164
 21
-60.1601128373613
 31
0.0
  0
LINE
  5
2556
330
18
100
AcDbEntity
  8
DIM
 62
     1
370
     0
100
AcDbLine
 10
5032.689782846675
 20
-60.11287442432418
 30
0.0
 11
5032.063148451114
 21
-60.12251232263493
 31
0.0
  0
LINE
  5
2557
330
18
100
AcDbEntity
  8
DESHED
  6
ByBlock
 62
     1
370
     0
100
AcDbLine
 10
5030.831581297046
 20
-60.07188375593155
 30
0.0
 11
5030.831581297046
 21
-59.7468663246445
 31
0.0
  0
LINE
  5
2558
330
18
100
AcDbEntity
  8
DIM
 62
     1
370
     0
100
AcDbLine
 10
5029.154563897545
 20
-60.07188375593155
 30
0.0
 11
5030.831581297046
 21
-60.07188375593155
 31
0.0
  0
LINE
  5
2559
330
18
100
AcDbEntity
  8
DIM
 62
     1
370
     0
100
AcDbLine
 10
5032.362183600851
 20
-59.28512044707436
 30
0.0
 11
5028.94299500922
 21
-59.28512044707436
 31
0.0
  0
ARC
  5
255A
330
18
100
AcDbEntity
  8
DIM
 62
     1
370
     0
100
AcDbCircle
 10
5032.362183600851
 20
-59.4032304470738
 30
0.0
 40
0.11811
100
AcDbArc
 50
0.0
 51
90.0
  0
LINE
  5
255B
330
18
100
AcDbEntity
  8
DIM
 62
     1
370
     0
100
AcDbLine
 10
5032.480293600851
 20
-60.07188375593155
 30
0.0
 11
5032.480293600851
 21
-59.4032304470738
 31
0.0
  0
LINE
  5
255C
330
18
100
AcDbEntity
  8
DIM
 62
     1
370
     0
100
AcDbLine
 10
5031.091423297046
 20
-60.07188375593155
 30
0.0
 11
5032.480293600851
 21
-60.07188375593155
 31
0.0
  0
LINE
  5
255D
330
18
100
AcDbEntity
  8
DESHED
  6
ByBlock
 62
     1
370
     0
100
AcDbLine
 10
5031.091423297046
 20
-59.7468663246445
 30
0.0
 11
5031.091423297046
 21
-60.07188375593155
 31
0.0
  0
SPLINE
  5
255E
330
18
100
AcDbEntity
  8
DIM
100
AcDbSpline
210
0.0
220
0.0
230
1.0
 70
     8
 71
     3
 72
    10
 73
     6
 74
     0
 42
0.0000000001
 43
0.0000000001
 40
168.1890314628041
 40
168.1890314628041
 40
168.1890314628041
 40
168.1890314628041
 40
240.3970488653276
 40
404.4385438063731
 40
531.2097876496541
 40
531.2097876496541
 40
531.2097876496541
 40
531.2097876496541
 10
5028.942995009222
 20
-59.28512044707618
 30
0.0
 10
5028.98078169469
 20
-59.32357587281417
 30
0.0
 10
5029.073641211893
 20
-59.46442780358388
 30
0.0
 10
5028.995216428348
 20
-59.78889142377098
 30
0.0
 10
5029.095329421714
 20
-59.9898988731647
 30
0.0
 10
5029.154563897546
 20
-60.07188375593155
 30
0.0
  0
MTEXT
  5
255F
330
18
100
AcDbEntity
  8
DIM
100
AcDbMText
 10
5029.025057401666
 20
-58.8075866019853
 30
0.0
 40
0.11811
 41
0.0
 71
     9
 72
     1
  1
COUNTERTOP
 73
     1
 44
1.0
  0
LINE
  5
2560
330
18
100
AcDbEntity
  8
DESHED
  6
ByBlock
 62
     1
100
AcDbLine
 10
5030.890636297045
 20
-59.78315983836451
 30
0.0
 11
5030.907558959643
 21
-59.79648463287135
 31
0.0
  0
LINE
  5
2561
330
18
100
AcDbEntity
  8
DESHED
  6
ByBlock
 62
     1
100
AcDbLine
 10
5030.961502297046
 20
-59.78860289900963
 30
0.0
 11
5030.890636297045
 21
-59.80980940446257
 31
0.0
  0
LINE
  5
2562
330
18
100
AcDbEntity
  8
DESHED
  6
ByBlock
 62
     1
100
AcDbLine
 10
5030.890636297045
 20
-59.80980940446257
 30
0.0
 11
5030.908299895805
 21
-59.82239393006143
 31
0.0
  0
LINE
  5
2563
330
18
100
AcDbEntity
  8
DESHED
  6
ByBlock
 62
     1
100
AcDbLine
 10
5030.908299895805
 20
-59.82239393006143
 30
0.0
 11
5030.890636297045
 21
-59.83349791784435
 31
0.0
  0
LINE
  5
2564
330
18
100
AcDbEntity
  8
DESHED
  6
ByBlock
 62
     1
100
AcDbLine
 10
5030.890636297045
 20
-59.83349791784435
 30
0.0
 11
5030.909781811282
 21
-59.84978378798309
 31
0.0
  0
LINE
  5
2565
330
18
100
AcDbEntity
  8
DESHED
  6
ByBlock
 62
     1
100
AcDbLine
 10
5030.909781811282
 20
-59.84978378798309
 30
0.0
 11
5030.890636297045
 21
-59.85940723795007
 31
0.0
  0
LINE
  5
2566
330
18
100
AcDbEntity
  8
DESHED
  6
ByBlock
 62
     1
100
AcDbLine
 10
5030.890636297045
 20
-59.85940723795007
 30
0.0
 11
5030.910522747443
 21
-59.87199176354893
 31
0.0
  0
LINE
  5
2567
330
18
100
AcDbEntity
  8
DESHED
  6
ByBlock
 62
     1
100
AcDbLine
 10
5030.910522747443
 20
-59.87199176354893
 30
0.0
 11
5030.890636297045
 21
-59.88457628914962
 31
0.0
  0
LINE
  5
2568
330
18
100
AcDbEntity
  8
DESHED
  6
ByBlock
 62
     1
100
AcDbLine
 10
5030.890636297045
 20
-59.88457628914962
 30
0.0
 11
5030.911263683604
 21
-59.90012186746294
 31
0.0
  0
LINE
  5
2569
330
18
100
AcDbEntity
  8
DESHED
  6
ByBlock
 62
     1
100
AcDbLine
 10
5030.911263683604
 20
-59.90012186746294
 30
0.0
 11
5030.890636297045
 21
-59.91344666196979
 31
0.0
  0
LINE
  5
256A
330
18
100
AcDbEntity
  8
DESHED
  6
ByBlock
 62
     1
100
AcDbLine
 10
5030.890636297045
 20
-59.91344666196979
 30
0.0
 11
5030.910522747443
 21
-59.93047277809906
 31
0.0
  0
LINE
  5
256B
330
18
100
AcDbEntity
  8
DESHED
  6
ByBlock
 62
     1
100
AcDbLine
 10
5030.910522747443
 20
-59.93047277809906
 30
0.0
 11
5030.890636297045
 21
-59.94231703478995
 31
0.0
  0
LINE
  5
256C
330
18
100
AcDbEntity
  8
DESHED
  6
ByBlock
 62
     1
100
AcDbLine
 10
5030.890636297045
 20
-59.94231703478995
 30
0.0
 11
5030.909781811282
 21
-59.96230420363367
 31
0.0
  0
LINE
  5
256D
330
18
100
AcDbEntity
  8
DESHED
  6
ByBlock
 62
     1
100
AcDbLine
 10
5030.909781811282
 20
-59.96230420363367
 30
0.0
 11
5030.890636297045
 21
-59.97710953595647
 31
0.0
  0
LINE
  5
256E
330
18
100
AcDbEntity
  8
DESHED
  6
ByBlock
 62
     1
100
AcDbLine
 10
5030.890636297045
 20
-59.97710953595647
 30
0.0
 11
5030.910130636898
 21
-60.00230989097595
 31
0.0
  0
LINE
  5
256F
330
18
100
AcDbEntity
  8
DESHED
  6
ByBlock
 62
     1
100
AcDbLine
 10
5030.910130636898
 20
-60.00230989097595
 30
0.0
 11
5030.890636297045
 21
-60.0193521631763
 31
0.0
  0
LINE
  5
2570
330
18
100
AcDbEntity
  8
DESHED
  6
ByBlock
 62
     1
100
AcDbLine
 10
5030.890636297045
 20
-60.0193521631763
 30
0.0
 11
5030.913155554512
 21
-60.0451115251371
 31
0.0
  0
LINE
  5
2571
330
18
100
AcDbEntity
  8
DESHED
  6
ByBlock
 62
     1
100
AcDbLine
 10
5030.913155554512
 20
-60.0451115251371
 30
0.0
 11
5030.890636297045
 21
-60.0591174802566
 31
0.0
  0
LINE
  5
2572
330
18
100
AcDbEntity
  8
DESHED
  6
ByBlock
 62
     1
100
AcDbLine
 10
5031.00984903958
 20
-60.0824676833317
 30
0.0
 11
5031.032368297045
 21
-60.10266998675884
 31
0.0
  0
LINE
  5
2573
330
18
100
AcDbEntity
  8
DESHED
  6
ByBlock
 62
     1
100
AcDbLine
 10
5031.032368297045
 20
-60.0591174802566
 30
0.0
 11
5031.00984903958
 21
-60.0824676833317
 31
0.0
  0
LINE
  5
2574
330
18
100
AcDbEntity
  8
DESHED
  6
ByBlock
 62
     1
100
AcDbLine
 10
5031.00984903958
 20
-60.0451115251371
 30
0.0
 11
5031.032368297045
 21
-60.0591174802566
 31
0.0
  0
LINE
  5
2575
330
18
100
AcDbEntity
  8
DESHED
  6
ByBlock
 62
     1
100
AcDbLine
 10
5031.032368297045
 20
-60.0193521631763
 30
0.0
 11
5031.00984903958
 21
-60.0451115251371
 31
0.0
  0
LINE
  5
2576
330
18
100
AcDbEntity
  8
DESHED
  6
ByBlock
 62
     1
100
AcDbLine
 10
5031.012873957195
 20
-60.00230989097595
 30
0.0
 11
5031.032368297045
 21
-60.0193521631763
 31
0.0
  0
LINE
  5
2577
330
18
100
AcDbEntity
  8
DESHED
  6
ByBlock
 62
     1
100
AcDbLine
 10
5031.032368297045
 20
-59.97710953595647
 30
0.0
 11
5031.012873957195
 21
-60.00230989097595
 31
0.0
  0
LINE
  5
2578
330
18
100
AcDbEntity
  8
DESHED
  6
ByBlock
 62
     1
100
AcDbLine
 10
5031.01322278281
 20
-59.96230420363367
 30
0.0
 11
5031.032368297045
 21
-59.97710953595647
 31
0.0
  0
LINE
  5
2579
330
18
100
AcDbEntity
  8
DESHED
  6
ByBlock
 62
     1
100
AcDbLine
 10
5031.032368297045
 20
-59.94231703478995
 30
0.0
 11
5031.01322278281
 21
-59.96230420363367
 31
0.0
  0
LINE
  5
257A
330
18
100
AcDbEntity
  8
DESHED
  6
ByBlock
 62
     1
100
AcDbLine
 10
5031.012481846648
 20
-59.93047277809906
 30
0.0
 11
5031.032368297045
 21
-59.94231703478995
 31
0.0
  0
LINE
  5
257B
330
18
100
AcDbEntity
  8
DESHED
  6
ByBlock
 62
     1
100
AcDbLine
 10
5031.032368297045
 20
-59.91344666196979
 30
0.0
 11
5031.012481846648
 21
-59.93047277809906
 31
0.0
  0
LINE
  5
257C
330
18
100
AcDbEntity
  8
DESHED
  6
ByBlock
 62
     1
100
AcDbLine
 10
5031.011740910487
 20
-59.90012186746294
 30
0.0
 11
5031.032368297045
 21
-59.91344666196979
 31
0.0
  0
LINE
  5
257D
330
18
100
AcDbEntity
  8
DESHED
  6
ByBlock
 62
     1
100
AcDbLine
 10
5031.032368297045
 20
-59.88457628914962
 30
0.0
 11
5031.011740910487
 21
-59.90012186746294
 31
0.0
  0
LINE
  5
257E
330
18
100
AcDbEntity
  8
DESHED
  6
ByBlock
 62
     1
100
AcDbLine
 10
5031.012481846648
 20
-59.87199176354893
 30
0.0
 11
5031.032368297045
 21
-59.88457628914962
 31
0.0
  0
LINE
  5
257F
330
18
100
AcDbEntity
  8
DESHED
  6
ByBlock
 62
     1
100
AcDbLine
 10
5031.032368297045
 20
-59.85940723795007
 30
0.0
 11
5031.012481846648
 21
-59.87199176354893
 31
0.0
  0
LINE
  5
2580
330
18
100
AcDbEntity
  8
DESHED
  6
ByBlock
 62
     1
100
AcDbLine
 10
5031.01322278281
 20
-59.84978378798309
 30
0.0
 11
5031.032368297045
 21
-59.85940723795007
 31
0.0
  0
LINE
  5
2581
330
18
100
AcDbEntity
  8
DESHED
  6
ByBlock
 62
     1
100
AcDbLine
 10
5031.032368297045
 20
-59.83349791784435
 30
0.0
 11
5031.01322278281
 21
-59.84978378798309
 31
0.0
  0
LINE
  5
2582
330
18
100
AcDbEntity
  8
DESHED
  6
ByBlock
 62
     1
100
AcDbLine
 10
5031.014704698288
 20
-59.82239393006143
 30
0.0
 11
5031.032368297045
 21
-59.83349791784435
 31
0.0
  0
LINE
  5
2583
330
18
100
AcDbEntity
  8
DESHED
  6
ByBlock
 62
     1
100
AcDbLine
 10
5031.032368297045
 20
-59.80980940446257
 30
0.0
 11
5031.014704698288
 21
-59.82239393006143
 31
0.0
  0
LINE
  5
2584
330
18
100
AcDbEntity
  8
DESHED
  6
ByBlock
 62
     1
100
AcDbLine
 10
5030.961502297046
 20
-59.78860289900963
 30
0.0
 11
5031.032368297045
 21
-59.80980940446257
 31
0.0
  0
LINE
  5
2585
330
18
100
AcDbEntity
  8
DESHED
  6
ByBlock
 62
     1
100
AcDbLine
 10
5031.032368297045
 20
-59.78315983836451
 30
0.0
 11
5031.015445634449
 21
-59.79648463287135
 31
0.0
  0
LINE
  5
2586
330
18
100
AcDbEntity
  8
DIM
100
AcDbLine
 10
5030.890636297045
 20
-60.35740055353468
 30
0.0
 11
5030.701660297046
 21
-60.35740055353468
 31
0.0
  0
LINE
  5
2587
330
18
100
AcDbEntity
  8
DIM
100
AcDbLine
 10
5030.831581297046
 20
-60.07188375593155
 30
0.0
 11
5029.154563897545
 21
-60.07188375593155
 31
0.0
  0
LINE
  5
2588
330
18
100
AcDbEntity
  8
DIM
100
AcDbLine
 10
5030.890636297045
 20
-60.26455220663315
 30
0.0
 11
5029.736390442117
 21
-60.2291873124113
 31
0.0
  0
LINE
  5
2589
330
18
100
AcDbEntity
  8
DIM
100
AcDbLine
 10
5030.890636297045
 20
-60.3472680038803
 30
0.0
 11
5029.693300263971
 21
-60.31058287135143
 31
0.0
  0
LINE
  5
258A
330
18
100
AcDbEntity
  8
DIM
100
AcDbLine
 10
5031.044179297046
 20
-60.35740055353468
 30
0.0
 11
5031.044179297046
 21
-60.38102255353347
 31
0.0
  0
LINE
  5
258B
330
18
100
AcDbEntity
  8
DIM
100
AcDbLine
 10
5030.878825297046
 20
-60.35740055353468
 30
0.0
 11
5030.878825297046
 21
-60.38102255353347
 31
0.0
  0
ARC
  5
258C
330
18
100
AcDbEntity
  8
DIM
100
AcDbCircle
 10
5030.961502297046
 20
-60.31467561822224
 30
0.0
 40
0.1564924140308158
100
AcDbArc
 50
279.9111678270125
 51
334.9149811222499
  0
LINE
  5
258D
330
18
100
AcDbEntity
  8
DIM
100
AcDbLine
 10
5030.961502297046
 20
-60.44277727017739
 30
0.0
 11
5030.988437945047
 21
-60.46883250751394
 31
0.0
  0
LINE
  5
258E
330
18
100
AcDbEntity
  8
DIM
100
AcDbLine
 10
5030.961502297046
 20
-60.44277727017739
 30
0.0
 11
5030.934566649046
 21
-60.46883250751394
 31
0.0
  0
LINE
  5
258F
330
18
100
AcDbEntity
  8
DIM
100
AcDbLine
 10
5031.221344297046
 20
-60.38102255353347
 30
0.0
 11
5030.701660297046
 21
-60.38102255353347
 31
0.0
  0
LINE
  5
2590
330
18
100
AcDbEntity
  8
DIM
100
AcDbLine
 10
5031.221344297046
 20
-60.35740055353468
 30
0.0
 11
5031.032368297045
 21
-60.35740055353468
 31
0.0
  0
ARC
  5
2591
330
18
100
AcDbEntity
  8
DIM
100
AcDbCircle
 10
5030.961502297046
 20
-60.31467561822224
 30
0.0
 40
0.1564924140308158
100
AcDbArc
 50
205.08501887775
 51
260.0888321729874
  0
LINE
  5
2592
330
18
100
AcDbEntity
  8
DIM
100
AcDbLine
 10
5030.701660297046
 20
-60.35740055353468
 30
0.0
 11
5030.701660297046
 21
-60.38102255353347
 31
0.0
  0
LINE
  5
2593
330
18
100
AcDbEntity
  8
DIM
100
AcDbLine
 10
5031.221344297046
 20
-60.35740055353468
 30
0.0
 11
5031.221344297046
 21
-60.38102255353347
 31
0.0
  0
LINE
  5
2594
330
18
100
AcDbEntity
  8
DIM
100
AcDbLine
 10
5029.577712314819
 20
-60.11160353626014
 30
0.0
 11
5029.650223178691
 21
-60.07188375593155
 31
0.0
  0
LINE
  5
2595
330
18
100
AcDbEntity
  8
DIM
100
AcDbLine
 10
5029.686596091156
 20
-60.31037746246052
 30
0.0
 11
5029.577712314819
 21
-60.11160353626014
 31
0.0
  0
LINE
  5
2596
330
18
100
AcDbEntity
  8
DIM
100
AcDbLine
 10
5032.343503417512
 20
-60.16544993396833
 30
0.0
 11
5032.418821698152
 21
-60.19954748417963
 31
0.0
  0
LINE
  5
2597
330
18
100
AcDbEntity
  8
DIM
100
AcDbLine
 10
5032.418821698152
 20
-60.19954748417963
 30
0.0
 11
5032.33195470363
 21
-60.3914285029377
 31
0.0
  0
LINE
  5
2598
330
18
100
AcDbEntity
  8
DIM
100
AcDbLine
 10
5032.33195470363
 20
-60.3914285029377
 30
0.0
 11
5031.032368297045
 21
-60.35161052515919
 31
0.0
  0
LINE
  5
2599
330
18
100
AcDbEntity
  8
DIM
100
AcDbLine
 10
5029.736390442117
 20
-60.2291873124113
 30
0.0
 11
5029.650223178691
 21
-60.07188375593155
 31
0.0
  0
LINE
  5
259A
330
18
100
AcDbEntity
  8
DIM
100
AcDbLine
 10
5032.279375829229
 20
-60.30710174358588
 30
0.0
 11
5031.032368297045
 21
-60.26889472791386
 31
0.0
  0
LINE
  5
259B
330
18
100
AcDbEntity
  8
DIM
100
AcDbLine
 10
5032.343503417512
 20
-60.16544993396833
 30
0.0
 11
5032.279375829229
 21
-60.30710174358588
 31
0.0
  0
LINE
  5
259C
330
18
100
AcDbEntity
  8
DIM
100
AcDbLine
 10
5032.868815677719
 20
-61.34590985152222
 30
0.0
 11
5032.824285842759
 21
-61.43118132376817
 31
0.0
  0
LINE
  5
259D
330
18
100
AcDbEntity
  8
DIM
100
AcDbLine
 10
5032.786401796577
 20
-60.25155671281114
 30
0.0
 11
5032.824285842759
 21
-61.43118132376817
 31
0.0
  0
ARC
  5
259E
330
18
100
AcDbEntity
  8
DIM
100
AcDbCircle
 10
5032.691962486146
 20
-60.25458966343371
 30
0.0
 40
0.094488
100
AcDbArc
 50
1.839441251917187
 51
90.88116350371967
  0
ARC
  5
259F
330
18
100
AcDbEntity
  8
DIM
100
AcDbCircle
 10
5032.691962486146
 20
-60.25458966343371
 30
0.0
 40
0.141732
100
AcDbArc
 50
1.839441251917187
 51
90.88116350371967
  0
LINE
  5
25A0
330
18
100
AcDbEntity
  8
DIM
100
AcDbLine
 10
5032.833621451792
 20
-60.25004023749985
 30
0.0
 11
5032.870498288422
 21
-61.41400982441787
 31
0.0
  0
LINE
  5
25A1
330
18
100
AcDbEntity
  8
DIM
100
AcDbLine
 10
5032.689782846675
 20
-60.11287442432418
 30
0.0
 11
5032.063148451114
 21
-60.12251232263493
 31
0.0
  0
LINE
  5
25A2
330
18
100
AcDbEntity
  8
DIM
100
AcDbLine
 10
5031.943257297073
 20
-60.07188375593155
 30
0.0
 11
5032.517196825155
 21
-60.07188375593155
 31
0.0
  0
LINE
  5
25A3
330
18
100
AcDbEntity
  8
DIM
100
AcDbLine
 10
5032.480293600851
 20
-60.07188375593155
 30
0.0
 11
5031.091423297046
 21
-60.07188375593155
 31
0.0
  0
LINE
  5
25A4
330
18
100
AcDbEntity
  8
DIM
100
AcDbLine
 10
5032.480293600851
 20
-59.4032304470738
 30
0.0
 11
5032.480293600851
 21
-60.07188375593155
 31
0.0
  0
ARC
  5
25A5
330
18
100
AcDbEntity
  8
DIM
100
AcDbCircle
 10
5032.362183600851
 20
-59.4032304470738
 30
0.0
 40
0.11811
100
AcDbArc
 50
0.0
 51
90.0
  0
LINE
  5
25A6
330
18
100
AcDbEntity
  8
DIM
100
AcDbLine
 10
5028.94299500922
 20
-59.28512044707436
 30
0.0
 11
5032.362183600851
 21
-59.28512044707436
 31
0.0
  0
LINE
  5
25A7
330
18
100
AcDbEntity
  8
DIM
  6
ByBlock
100
AcDbLine
 10
5030.831581297046
 20
-59.7468663246445
 30
0.0
 11
5030.831581297046
 21
-60.07188375593155
 31
0.0
  0
LINE
  5
25A8
330
18
100
AcDbEntity
  8
DIM
100
AcDbLine
 10
5030.961502297046
 20
-59.59944375593018
 30
0.0
 11
5030.961502297046
 21
-60.49740255230877
 31
0.0
  0
SPLINE
  5
25A9
330
18
100
AcDbEntity
  8
DIM
100
AcDbSpline
210
0.0
220
0.0
230
1.0
 70
     8
 71
     3
 72
    10
 73
     6
 74
     0
 42
0.0000000001
 43
0.0000000001
 40
168.1890314628041
 40
168.1890314628041
 40
168.1890314628041
 40
168.1890314628041
 40
240.3970488653276
 40
404.4385438063731
 40
531.2097876496541
 40
531.2097876496541
 40
531.2097876496541
 40
531.2097876496541
 10
5028.942995009222
 20
-59.28512044707618
 30
0.0
 10
5028.98078169469
 20
-59.32357587281417
 30
0.0
 10
5029.073641211893
 20
-59.46442780358388
 30
0.0
 10
5028.995216428348
 20
-59.78889142377098
 30
0.0
 10
5029.095329421714
 20
-59.9898988731647
 30
0.0
 10
5029.154563897546
 20
-60.07188375593155
 30
0.0
  0
MTEXT
  5
25AA
330
18
100
AcDbEntity
  8
0
100
AcDbMText
 10
5027.237220952088
 20
-66.7368301552187
 30
0.0
 40
0.23622
 41
12.42715563085389
 71
     1
 72
     5
  1
{\fArial|b0|i0|c0|p34;Please check actual template against physical sink unit for most accurate cut!}
 73
     1
 44
1.0
  0
MTEXT
  5
25AB
330
18
100
AcDbEntity
  8
0
100
AcDbMText
 10
5027.237220952088
 20
-65.77848234576681
 30
0.0
 40
0.23622
 41
12.42715563085389
 71
     1
 72
     5
  1
{\fArial|b1|i0|c0|p34;Use inside line for flush mount cut:\fArial|b0|i0|c0|p34;\PSink wall is flush to the edge of countertop opening.}
 73
     1
 44
1.0
  0
MTEXT
  5
25AC
330
18
100
AcDbEntity
  8
0
100
AcDbMText
 10
5027.237220952088
 20
-64.66556231824047
 30
0.0
 40
0.23622
 41
12.4272
 71
     1
 72
     5
  1
{\fArial|b1|i0|c0|p34;Use outside line for reveal mount cut:\P\fArial|b0|i0|c0|p34;Sink rim is 1/4" revealed from the countertop opening.}
 73
     1
 44
1.0
  0
ARC
  5
25AD
330
18
100
AcDbEntity
  8
0
 62
     0
100
AcDbCircle
 10
5032.920744185874
 20
-42.70677180244361
 30
0.0
 40
27.807031
100
AcDbArc
 50
270.0
 51
276.8746645138933
  0
ARC
  5
25AE
330
18
100
AcDbEntity
  8
0
 62
     0
100
AcDbCircle
 10
5035.818934171827
 20
-66.74524247567474
 30
0.0
 40
3.594481
100
AcDbArc
 50
276.8746645138933
 51
353.6305115096728
  0
ARC
  5
25AF
330
18
100
AcDbEntity
  8
0
 62
     0
100
AcDbCircle
 10
4992.172794185872
 20
-61.87307721044904
 30
0.0
 40
47.511716
100
AcDbArc
 50
353.6305115096728
 51
6.037046067386775
  0
ARC
  5
25B0
330
18
100
AcDbEntity
  8
0
 62
     0
100
AcDbCircle
 10
5035.846468676077
 20
-57.25423681821935
 30
0.0
 40
3.594481
100
AcDbArc
 50
6.037046067386775
 51
83.059702351624
  0
ARC
  5
25B1
330
18
100
AcDbEntity
  8
0
 62
     0
100
AcDbCircle
 10
5032.920744185873
 20
-81.28937180244333
 30
0.0
 40
27.807031
100
AcDbArc
 50
83.059702351624
 51
90.0
  0
LINE
  5
25B2
330
18
100
AcDbEntity
  8
0
 62
     0
100
AcDbLine
 10
5032.920744185873
 20
-53.48234080244488
 30
0.0
 11
5023.798974510803
 21
-53.48234080244488
 31
0.0
  0
ARC
  5
25B3
330
18
100
AcDbEntity
  8
0
 62
     0
100
AcDbCircle
 10
5023.798974510803
 20
-52.54927180244426
 30
0.0
 40
0.933069
100
AcDbArc
 50
230.1002134442678
 51
270.0
  0
ARC
  5
25B4
330
18
100
AcDbEntity
  8
0
  6
DASHED2
 62
     0
 48
0.1
100
AcDbCircle
 10
5023.798974510803
 20
-52.54927180244426
 30
0.0
 40
1.1811
100
AcDbArc
 50
230.1002134442678
 51
270.0
  0
LINE
  5
25B5
330
18
100
AcDbEntity
  8
0
  6
DASHED2
 48
0.1
100
AcDbLine
 10
5032.920744185873
 20
-53.73037180244406
 30
0.0
 11
5023.798974510803
 21
-53.73037180244406
 31
0.0
  0
ARC
  5
25B6
330
18
100
AcDbEntity
  8
0
  6
DASHED2
 48
0.1
100
AcDbCircle
 10
5035.846468676077
 20
-57.25423681821935
 30
0.0
 40
3.34645
100
AcDbArc
 50
6.037046067386775
 51
83.059702351624
  0
ARC
  5
25B7
330
18
100
AcDbEntity
  8
0
  6
DASHED2
 48
0.1
100
AcDbCircle
 10
5035.818934171827
 20
-66.74524247567474
 30
0.0
 40
3.34645
100
AcDbArc
 50
276.8746645138933
 51
353.6305115096728
  0
ARC
  5
25B8
330
18
100
AcDbEntity
  8
0
  6
DASHED2
 48
0.1
100
AcDbCircle
 10
4992.172794185872
 20
-61.87307721044904
 30
0.0
 40
47.263685
100
AcDbArc
 50
353.6305115096728
 51
6.037046067386775
  0
ARC
  5
25B9
330
18
100
AcDbEntity
  8
0
  6
DASHED2
 48
0.1
100
AcDbCircle
 10
5032.920744185873
 20
-81.28937180244333
 30
0.0
 40
27.559
100
AcDbArc
 50
83.059702351624
 51
90.0
  0
ARC
  5
25BA
330
18
100
AcDbEntity
  8
0
  6
DASHED2
 48
0.1
100
AcDbCircle
 10
5032.920744185874
 20
-42.70677180244361
 30
0.0
 40
27.559
100
AcDbArc
 50
270.0
 51
276.8746645138933
  0
ENDSEC
  0
SECTION
  2
OBJECTS
  0
DICTIONARY
  5
C
330
0
100
AcDbDictionary
281
     1
  3
ACAD_COLOR
350
EE0
  3
ACAD_GROUP
350
D
  3
ACAD_LAYOUT
350
EE1
  3
ACAD_MATERIAL
350
EDF
  3
ACAD_MLINESTYLE
350
1B
  3
ACAD_PLOTSETTINGS
350
EE2
  3
ACAD_PLOTSTYLENAME
350
EDD
  3
ACAD_WIPEOUT_VARS
350
2408
  3
ACDBVARIABLEDICTIONARY
350
1DB8
  3
ASE_INDEX_DICTIONARY
350
240F
  0
DICTIONARY
  5
EE0
102
{ACAD_REACTORS
330
C
102
}
330
C
100
AcDbDictionary
281
     1
  0
DICTIONARY
  5
D
102
{ACAD_REACTORS
330
C
102
}
330
C
100
AcDbDictionary
281
     1
  0
DICTIONARY
  5
EE1
102
{ACAD_REACTORS
330
C
102
}
330
C
100
AcDbDictionary
281
     1
  3
\M+5B2BC\M+5BED61
350
EE4
  3
MODEL
350
EE3
  0
DICTIONARY
  5
EDF
102
{ACAD_REACTORS
330
C
102
}
330
C
100
AcDbDictionary
281
     1
  0
DICTIONARY
  5
1B
102
{ACAD_REACTORS
330
C
102
}
330
C
100
AcDbDictionary
281
     1
  3
STANDARD
350
1C
  0
DICTIONARY
  5
EE2
102
{ACAD_REACTORS
330
C
102
}
330
C
100
AcDbDictionary
281
     1
  0
ACDBDICTIONARYWDFLT
  5
EDD
102
{ACAD_REACTORS
330
C
102
}
330
C
100
AcDbDictionary
281
     1
  3
NORMAL
350
EDE
100
AcDbDictionaryWithDefault
340
EDE
  0
ACAD_PROXY_OBJECT
  5
2408
330
C
100
AcDbProxyObject
 90
      499
 91
      521
 95
   851991
 70
     0
 93
       10
310
4042
 94
        0
  0
DICTIONARY
  5
1DB8
102
{ACAD_REACTORS
330
C
102
}
330
C
100
AcDbDictionary
281
     1
  3
DIMASSOC
350
2403
  3
HIDETEXT
350
2404
  3
PROJECTNAME
350
1DBA
  0
DICTIONARY
  5
240F
102
{ACAD_REACTORS
330
C
102
}
330
C
100
AcDbDictionary
281
     1
  3
ASEBlockHierarchyIndexRecord
350
2410
1001
DCO15
1040
1664636945.275
  0
LAYOUT
  5
EE4
102
{ACAD_REACTORS
330
EE1
102
}
330
EE1
100
AcDbPlotSettings
  1

  2
C:\Documents and Settings\jac\Application Data\Autodesk\AutoCAD 2004\R16.0\chs\plotters\PublishToWeb PNG.pc3
  4

  6

 40
0.0
 41
0.0
 42
0.0
 43
0.0
 44
0.0
 45
0.0
 46
0.0
 47
0.0
 48
0.0
 49
0.0
140
0.0
141
0.0
142
1.0
143
1.0
 70
   688
 72
     0
 73
     0
 74
     5
  7

 75
    16
147
1.0
148
0.0
149
0.0
100
AcDbLayout
  1
\M+5B2BC\M+5BED61
 70
     1
 71
     1
 10
0.0
 20
0.0
 11
420.0
 21
297.0
 12
0.0
 22
0.0
 32
0.0
 14
1.000000000000000E+20
 24
1.000000000000000E+20
 34
1.000000000000000E+20
 15
-1.000000000000000E+20
 25
-1.000000000000000E+20
 35
-1.000000000000000E+20
146
0.0
 13
0.0
 23
0.0
 33
0.0
 16
1.0
 26
0.0
 36
0.0
 17
0.0
 27
1.0
 37
0.0
 76
     0
330
15
  0
LAYOUT
  5
EE3
102
{ACAD_REACTORS
330
EE1
102
}
330
EE1
100
AcDbPlotSettings
  1

  2
C:\Documents and Settings\jac\Application Data\Autodesk\AutoCAD 2004\R16.0\chs\plotters\PublishToWeb PNG.pc3
  4

  6

 40
0.0
 41
0.0
 42
0.0
 43
0.0
 44
0.0
 45
0.0
 46
0.0
 47
0.0
 48
0.0
 49
0.0
140
0.0
141
0.0
142
1.0
143
1.0
 70
  1712
 72
     0
 73
     0
 74
     0
  7

 75
     0
147
1.0
148
0.0
149
0.0
100
AcDbLayout
  1
MODEL
 70
     1
 71
     0
 10
0.0
 20
0.0
 11
12.0
 21
9.0
 12
0.0
 22
0.0
 32
0.0
 14
0.0
 24
0.0
 34
0.0
 15
0.0
 25
0.0
 35
0.0
146
0.0
 13
0.0
 23
0.0
 33
0.0
 16
1.0
 26
0.0
 36
0.0
 17
0.0
 27
1.0
 37
0.0
 76
     0
330
18
  0
MLINESTYLE
  5
1C
102
{ACAD_REACTORS
330
1B
102
}
330
1B
100
AcDbMlineStyle
  2
STANDARD
 70
     0
  3

 62
   256
 51
90.0
 52
90.0
 71
     2
 49
0.5
 62
   256
  6
BYLAYER
 49
-0.5
 62
   256
  6
BYLAYER
  0
ACDBPLACEHOLDER
  5
EDE
102
{ACAD_REACTORS
330
EDD
102
}
330
EDD
  0
DICTIONARYVAR
  5
2403
102
{ACAD_REACTORS
330
1DB8
102
}
330
1DB8
100
DictionaryVariables
280
     0
  1
1
  0
DICTIONARYVAR
  5
2404
102
{ACAD_REACTORS
330
1DB8
102
}
330
1DB8
100
DictionaryVariables
280
     0
  1
0
  0
DICTIONARYVAR
  5
1DBA
102
{ACAD_REACTORS
330
1DB8
102
}
330
1DB8
100
DictionaryVariables
280
     0
  1

  0
XRECORD
  5
2410
102
{ACAD_REACTORS
330
240F
102
}
330
240F
100
AcDbXrecord
280
     1
330
242C
  0
ENDSEC
  0
EOF
